<?xml version="1.0" standalone="no"?>
<!DOCTYPE svg PUBLIC "-//W3C//DTD SVG 1.1//EN" "http://www.w3.org/Graphics/SVG/1.1/DTD/svg11.dtd" >
<svg>
<metadata>
Created by FontForge 20120731 at Mon Feb 25 16:56:14 2013
 By Jenkins
(c) 1990, 2002 Adobe Systems Incorporated. All rights reserved.
</metadata>
<defs>
<font id="HelveticaNeueLTStd-LtCn" horiz-adv-x="426" >
  <font-face 
    font-family="HelveticaNeueLT Std Lt Cn"
    font-weight="300"
    font-stretch="condensed"
    units-per-em="1000"
    panose-1="2 11 4 6 2 2 2 3 2 4"
    ascent="714"
    descent="-286"
    x-height="531"
    cap-height="714"
    bbox="-167 -204 1000 927"
    underline-thickness="50"
    underline-position="-50"
    unicode-range="U+0020-FB02"
  />
<missing-glyph horiz-adv-x="500" 
d="M0 0v700h500v-700h-500zM250 395l170 255h-340zM280 350l170 -255v510zM80 50h340l-170 255zM50 605v-510l170 255z" />
    <glyph glyph-name="f_i" unicode="fi" 
d="M304 0v531h60v-531h-60zM304 612v102h60v-102h-60zM80 0v481h-73v50h73v63c0 42 7.66699 73.833 23 95.5s46.333 32.5 93 32.5c14.667 0 27.334 -1 38 -3v-50c-9.33301 2 -19 3 -29 3c-22.667 0 -39.167 -5.66699 -49.5 -17c-10.333 -11.3359 -15.5 -31.6689 -15.5 -61
v-63h94v-50h-94v-481h-60z" />
    <glyph glyph-name="f_l" unicode="fl" 
d="M304 0v714h60v-714h-60zM80 0v481h-73v50h73v63c0 42 7.66699 73.833 23 95.5s46.333 32.5 93 32.5c14.667 0 27.334 -1 38 -3v-50c-9.33301 2 -19 3 -29 3c-22.667 0 -39.167 -5.66699 -49.5 -17c-10.333 -11.3359 -15.5 -31.6689 -15.5 -61v-63h94v-50h-94v-481h-60z
" />
    <glyph glyph-name=".notdef" horiz-adv-x="500" 
d="M0 0v700h500v-700h-500zM250 395l170 255h-340zM280 350l170 -255v510zM80 50h340l-170 255zM50 605v-510l170 255z" />
    <glyph glyph-name="space" unicode=" " horiz-adv-x="240" 
 />
    <glyph glyph-name="exclam" unicode="!" horiz-adv-x="240" 
d="M86 488v226h68v-226l-12 -302h-44zM86 0v102h68v-102h-68z" />
    <glyph glyph-name="quotedbl" unicode="&#x22;" horiz-adv-x="352" 
d="M71 474v240h60v-240h-60zM221 474v240h60v-240h-60z" />
    <glyph glyph-name="numbersign" unicode="#" horiz-adv-x="480" 
d="M189 426l-20 -156h122l20 156h-122zM3 226v44h116l20 156h-110v44h116l30 226h50l-30 -226h122l30 226h50l-30 -226h110v-44h-116l-20 -156h110v-44h-116l-30 -226h-50l30 226h-122l-30 -226h-50l30 226h-110z" />
    <glyph glyph-name="dollar" unicode="$" horiz-adv-x="480" 
d="M219 396v258c-36 -4 -64 -17.333 -84 -40s-30 -50.667 -30 -84c0 -36.667 10 -65 30 -85s48 -36.333 84 -49zM263 321v-279c38 4 68.167 17.833 90.5 41.5s33.5 56.5 33.5 98.5c0 38 -10.5 66.833 -31.5 86.5s-51.833 37.167 -92.5 52.5zM29 195l-0.000976562 20h64v-26
c0 -42.667 10.833 -77.167 32.5 -103.5s52.834 -40.833 93.501 -43.5v294c-27.333 8 -49.5 15.667 -66.5 23s-35.167 17.833 -54.5 31.5s-33.666 31.667 -42.999 54s-14 48.833 -14 79.5c0 52 15.667 94.5 47 127.5s75 51.833 131 56.5v71h44v-71
c112.667 -8.66699 169 -72 169 -190h-64c0 82.667 -35 128 -105 136v-273c19.333 -6.66699 32.666 -11.167 39.999 -13.5s19.5 -7 36.5 -14s29.167 -13.167 36.5 -18.5s17 -13 29 -23s20.5 -20.333 25.5 -31s9.66699 -23.667 14 -39s6.5 -32 6.5 -50
c0 -61.333 -16.667 -109.333 -50 -144s-79.333 -54.667 -138 -60v-83h-44v83c-126.667 7.33301 -190 76.333 -190 207z" />
    <glyph glyph-name="percent" unicode="%" horiz-adv-x="722" 
d="M107 524c0 -93.333 24 -140 72 -140s72 46.667 72 140s-24 140 -72 140s-72 -46.667 -72 -140zM182 -12l307 720h50l-307 -720h-50zM471 172c0 -93.333 24 -140 72 -140s72 46.667 72 140s-24 140 -72 140s-72 -46.667 -72 -140zM53 524c0 69.333 10.333 117.333 31 144
s52.334 40 95.001 40s74.334 -13.333 95.001 -40s31 -74.667 31 -144s-10.333 -117.333 -31 -144s-52.334 -40 -95.001 -40s-74.334 13.333 -95.001 40s-31 74.667 -31 144zM417 172c0 69.333 10.333 117.333 31 144s52.334 40 95.001 40c42.668 0 74.335 -13.333 95 -40
c20.667 -26.667 31 -74.667 31 -144s-10.333 -117.333 -31 -144s-52.334 -40 -95.001 -40s-74.334 13.333 -95 40c-20.667 26.667 -31 74.667 -31 144z" />
    <glyph glyph-name="ampersand" unicode="&#x26;" horiz-adv-x="537" 
d="M475 0l-63 87.001c-44 -66 -107.333 -99 -190 -99c-60 0 -108.333 18 -145 54s-55 81 -55 135c0 70 34.333 131.333 103 184l59 45c-54.667 72 -82 130.667 -82 176c0 41.333 14 73.666 42 96.999s62.667 35 104 35s74.5 -12.167 99.5 -36.5
c25 -24.335 37.5 -56.168 37.5 -95.5c0 -31.333 -9 -61.333 -27 -90s-51 -60 -99 -94l154 -216c16 39.333 24.667 84.333 26 135h60c0 -64 -16.667 -125.667 -50 -185l94 -132h-68zM162 584.001c0 -36.667 22.332 -85 66.999 -145c64 48.667 96 97 96 145
c0 22.667 -7.66699 41.667 -23 57s-34.666 23 -57.999 23s-42.833 -7.66699 -58.5 -23s-23.5 -34.333 -23.5 -57zM380.999 132.001l-167 234c-47.333 -33.333 -80.5 -64.333 -99.5 -93s-28.5 -58.334 -28.5 -89.001c0 -41.333 14 -75.333 42 -102s62.333 -40 103 -40
c30 0 59 8.33301 87 25s49 38.334 63 65.001z" />
    <glyph glyph-name="quotesingle" unicode="'" horiz-adv-x="240" 
d="M90 474v240h60v-240h-60z" />
    <glyph glyph-name="parenleft" unicode="(" horiz-adv-x="222" 
d="M187 714l43 0.000976562c-77.333 -134.667 -116 -284.334 -116 -449.001s38.667 -314.334 116 -449.001h-43c-88.667 144.667 -133 294.334 -133 449.001s44.333 304.334 133 449z" />
    <glyph glyph-name="parenright" unicode=")" horiz-adv-x="222" 
d="M35 -184h-43c77.333 134.667 116 284.334 116 449.001s-38.667 314.334 -116 449.001h43c88.667 -144.667 133 -294.334 133 -449.001s-44.333 -304.334 -133 -449.001z" />
    <glyph glyph-name="asterisk" unicode="*" horiz-adv-x="334" 
d="M145 714h44v-111l106 34l13 -42l-105 -34l65 -90l-36 -26l-65 90l-65 -90l-36 26l65 90l-105 34l13 42l106 -34v111z" />
    <glyph glyph-name="plus" unicode="+" horiz-adv-x="600" 
d="M275 0v228h-228v50h228v228h50v-228h228v-50h-228v-228h-50z" />
    <glyph glyph-name="comma" unicode="," horiz-adv-x="240" 
d="M86 0l-0.000976562 102h68v-102c0 -74 -24.667 -120 -74 -138v40c22.667 14 34.334 46.667 35.001 98h-29z" />
    <glyph glyph-name="hyphen" unicode="-" horiz-adv-x="333" 
d="M58 311h217v-54h-217v54z" />
    <glyph glyph-name="period" unicode="." horiz-adv-x="240" 
d="M86 0v102h68v-102h-68z" />
    <glyph glyph-name="slash" unicode="/" horiz-adv-x="278" 
d="M234 726h54l-244 -738h-54z" />
    <glyph glyph-name="zero" unicode="0" horiz-adv-x="480" 
d="M105 348c0 -112.667 10.332 -192.5 30.999 -239.5s55.334 -70.5 104.001 -70.5s83.334 23.5 104.001 70.5s31 126.833 31 239.5s-10.333 192.5 -31 239.5s-55.334 70.5 -104 70.5c-48.667 0 -83.334 -23.5 -104.001 -70.5s-31 -126.833 -31 -239.5zM40.999 348
c0 56 2.83301 104.5 8.5 145.5s15.667 78.333 30 112s34.833 59.167 61.5 76.5s59.667 26 99 26s72.333 -8.66699 99 -26s47.167 -42.833 61.5 -76.5s24.333 -71 30 -112s8.5 -89.5 8.5 -145.5s-2.83301 -104.5 -8.5 -145.5s-15.667 -78.333 -30 -112
s-34.833 -59.167 -61.5 -76.5s-59.667 -26 -99 -26s-72.333 8.66699 -99 26s-47.167 42.833 -61.5 76.5s-24.333 71 -30 112s-8.5 89.5 -8.5 145.5z" />
    <glyph glyph-name="one" unicode="1" horiz-adv-x="480" 
d="M230 0l-0.000976562 542h-162v44c112.667 0.666992 171.334 41.334 176.001 122h46v-708h-60z" />
    <glyph glyph-name="two" unicode="2" horiz-adv-x="480" 
d="M111 486l-63.998 -0.00195312c1.33301 70 18.666 124.5 51.999 163.5s82.666 58.5 147.999 58.5c52 0 95.5 -16.167 130.5 -48.5c35 -32.334 52.5 -80.167 52.5 -143.5c0 -44 -8.33301 -82.167 -25 -114.5s-47.334 -66.833 -92 -103.5l-77 -63
c-39.333 -32.667 -68.5 -62.167 -87.5 -88.5s-31.167 -57.166 -36.5 -92.499h324v-54h-392c0 56 12 104.833 36 146.5s61.333 83.834 112 126.501l76 64c35.333 30 60.5 58.333 75.5 85s22.5 57 22.5 91c0 46 -11.5 81.667 -34.5 107s-53.167 38 -90.5 38
c-82.667 0 -126 -57.333 -130 -172z" />
    <glyph glyph-name="three" unicode="3" horiz-adv-x="480" 
d="M187 343v50h33c42.667 0 75.667 11.5 99 34.5s35 55.5 35 97.5s-10 74.667 -30 98s-49 35 -87 35c-37.333 0 -67.333 -12.333 -90 -37s-34.334 -61 -35.001 -109h-64c0 60.667 16.167 108.5 48.5 143.5s79.166 52.5 140.499 52.5c54.667 0 98.5 -15.667 131.5 -47
s49.5 -74 49.5 -128c0 -40.667 -9.66699 -75.167 -29 -103.5s-47.666 -47.166 -84.999 -56.499v-2c41.334 -6 74.167 -24.5 98.5 -55.5s36.5 -68.5 36.5 -112.5c0 -65.333 -17.5 -117.5 -52.5 -156.5s-85.167 -58.5 -150.5 -58.5c-61.333 0 -109 17.167 -143 51.5
s-52.333 84.166 -55 149.499h64c0 -44 11.5 -80.167 34.5 -108.5s56.167 -42.5 99.5 -42.5c40 0 73.167 13.333 99.5 40s39.5 67.667 39.5 123c0 45.333 -12.667 80.333 -38 105s-59.666 37 -102.999 37h-47z" />
    <glyph glyph-name="four" unicode="4" horiz-adv-x="480" 
d="M305 0v182h-273v60l273 466h60v-472h83v-54h-83v-182h-60zM86 236h219v370h-2z" />
    <glyph glyph-name="five" unicode="5" horiz-adv-x="480" 
d="M96 696l309.998 -0.00195312v-54h-262l-31 -247l2 -2c12.667 24.667 31.5 42.834 56.5 54.501s51.833 17.5 80.5 17.5c56.667 0 102 -20 136 -60s51 -98 51 -174c0 -73.333 -18.167 -132.166 -54.5 -176.499s-88.166 -66.5 -155.499 -66.5c-56 0 -101.333 17 -136 51
s-52 81.333 -52 142h64c0 -41.333 11.5 -75.5 34.5 -102.5s55.167 -40.5 96.5 -40.5c43.333 0 77.333 17.5 102 52.5s37 85.167 37 150.5c0 52 -11.667 94 -35 126s-57.666 48 -102.999 48c-28 0 -53 -6.83301 -75 -20.5s-37.667 -34.167 -47 -61.5h-60z" />
    <glyph glyph-name="six" unicode="6" horiz-adv-x="480" 
d="M427 542l-63.998 0.000976562c-1.33301 35.333 -11.833 63.5 -31.5 84.5s-46.5 31.5 -80.5 31.5c-50 0 -87 -25 -111 -75s-36.667 -132.333 -38 -247l2 -2c11.333 36.667 30.166 65.167 56.499 85.5s58.166 30.5 95.499 30.5c60 0 106 -20 138 -60s48 -93.333 48 -160
c0 -71.333 -16.667 -129.5 -50 -174.5s-82.333 -67.5 -147 -67.5c-76.667 0 -130.334 27.5 -161.001 82.5s-46 141.167 -46 258.5c0 61.333 3.33301 114 10 158s18 83.167 34 117.5s38.333 60.166 67 77.499s63.667 26 105 26c54.667 0 96.834 -15.167 126.501 -45.5
s45.167 -70.5 46.5 -120.5zM114.002 219.001c0 -51.333 10.666 -94.333 31.999 -129s54.666 -52 99.999 -52c45.334 0 78.667 17.333 100 52s32 77.667 32 129s-10.667 94.333 -32 129s-54.666 52 -99.999 52s-78.666 -17.333 -99.999 -52s-32 -77.667 -32 -129z" />
    <glyph glyph-name="seven" unicode="7" horiz-adv-x="480" 
d="M41 642v54h398v-54c-72 -88.667 -130.333 -192.167 -175 -310.5s-71 -228.833 -79 -331.5h-68c5.33301 98 33 208.5 83 331.5s109.667 226.5 179 310.5h-338z" />
    <glyph glyph-name="eight" unicode="8" horiz-adv-x="480" 
d="M105 195c0 -44.667 11.666 -82 34.999 -112s56.666 -45 99.999 -45c43.334 0 76.667 15 100 45s35 67.333 35 112c0 45.333 -11.667 83 -35 113s-56.666 45 -99.999 45s-76.666 -15 -99.999 -45s-35 -67.667 -35 -113zM40.999 200c0 44.667 11 84 33 118s53.667 53 95 57
v2c-33.333 8.66699 -59.5 28 -78.5 58s-28.5 62.667 -28.5 98c0 56 16.333 99.167 49 129.5s75.667 45.5 129 45.5c54 0 97.167 -15 129.5 -45s48.5 -73.333 48.5 -130c0 -36 -9.33301 -68.833 -28 -98.5s-45 -48.834 -79 -57.5v-2c41.333 -4 73 -23 95 -57
s33 -73.333 33 -118c0 -66 -18.167 -117.833 -54.5 -155.5s-84.5 -56.5 -144.5 -56.5s-108.167 18.833 -144.5 56.5s-54.5 89.5 -54.5 155.5zM125.999 530c0 -38.667 9.83008 -69.5 29.4971 -92.5s47.834 -34.5 84.501 -34.5c37.334 0 65.667 11.5 85 34.5
s29 53.833 29 92.5c0 39.333 -9.66699 70.5 -29 93.5s-47.666 34.5 -84.999 34.5s-65.666 -11.5 -84.999 -34.5s-29 -54.167 -29 -93.5z" />
    <glyph glyph-name="nine" unicode="9" horiz-adv-x="480" 
d="M53 154l63.998 -0.000976562c1.33301 -35.333 11.833 -63.5 31.5 -84.5s46.5 -31.5 80.5 -31.5c50 0 87 25 111 75s36.667 132.333 38 247l-2 2c-11.333 -36.667 -30.166 -65.167 -56.499 -85.5s-58.166 -30.5 -95.499 -30.5c-60 0 -106 20 -138 60s-48 93.333 -48 160
c0 71.333 16.667 129.5 50 174.5s82.333 67.5 147 67.5c76.667 0 130.334 -27.5 161.001 -82.5s46 -141.167 46 -258.5c0 -61.333 -3.33301 -114 -10 -158s-18 -83.167 -34 -117.5s-38.333 -60.166 -67 -77.499s-63.667 -26 -105 -26
c-54.667 0 -96.834 15.167 -126.501 45.5s-45.167 70.5 -46.5 120.5zM101.998 476.999c0 -51.333 10.666 -94.333 31.999 -129s54.666 -52 99.999 -52c45.334 0 78.667 17.333 100 52s32 77.667 32 129s-10.667 94.333 -32 129s-54.666 52 -99.999 52
s-78.666 -17.333 -99.999 -52s-32 -77.667 -32 -129z" />
    <glyph glyph-name="colon" unicode=":" horiz-adv-x="240" 
d="M86 399v102h68v-102h-68zM86 0v102h68v-102h-68z" />
    <glyph glyph-name="semicolon" unicode=";" horiz-adv-x="240" 
d="M86 0l-0.000976562 102h68v-102c0 -74 -24.667 -120 -74 -138v40c22.667 14 34.334 46.667 35.001 98h-29zM85.999 399v102h68v-102h-68z" />
    <glyph glyph-name="less" unicode="&#x3c;" horiz-adv-x="600" 
d="M47 226v54l506 234v-54l-446 -207l446 -207v-54z" />
    <glyph glyph-name="equal" unicode="=" horiz-adv-x="600" 
d="M47 325v50h506v-50h-506zM47 131v50h506v-50h-506z" />
    <glyph glyph-name="greater" unicode="&#x3e;" horiz-adv-x="600" 
d="M47 -8v54l446 207l-446 207v54l506 -234v-54z" />
    <glyph glyph-name="question" unicode="?" 
d="M228 185l-60 -0.000976562v35c0 36.667 4.5 65.667 13.5 87c9 21.334 26.5 45.667 52.5 73l42 45c34.667 37.334 52 79.667 52 127c0 36 -10.333 65.667 -31 89s-47.667 35 -81 35c-85.333 0 -128 -56 -128 -168h-64c0.666992 65.333 16.834 118 48.501 158
s78.167 60 139.5 60c55.333 0 99.166 -16 131.499 -48s48.5 -74.333 48.5 -127c0 -58.667 -21.667 -111 -65 -157l-43 -46c-20.667 -22 -35.167 -42.667 -43.5 -62s-12.5 -43.666 -12.5 -72.999v-28zM164 -0.000976562v102h68v-102h-68z" />
    <glyph glyph-name="at" unicode="@" horiz-adv-x="800" 
d="M243 288c0 -68 28.666 -102 85.999 -102c49.333 0 92.5 27.667 129.5 83s55.5 108.666 55.5 159.999c0 32.667 -6.83301 56.834 -20.5 72.501s-35.5 23.5 -65.5 23.5c-34 0 -65.667 -13.333 -95 -40s-51.666 -58 -66.999 -94s-23 -70.333 -23 -103zM546.999 492
l25 66.001h57l-102 -294c-8.66699 -26 -13 -45.667 -13 -59c0 -16.667 9 -25 27 -25c43.333 0 83.833 26.833 121.5 80.5s56.5 107.5 56.5 161.5c0 76 -29.667 138.333 -89 187s-129.333 73 -210 73c-96.667 0 -177.334 -32 -242.001 -96s-97 -140.333 -97 -229
c0 -90 32.833 -166.667 98.5 -230s145.834 -95 240.501 -95c54.667 0 107.5 12.5 158.5 37.5s89.833 58.5 116.5 100.5h60c-34 -56 -81.333 -100.333 -142 -133s-125 -49 -193 -49c-109.333 0 -201.5 36 -276.5 108s-112.5 159 -112.5 261s38 189 114 261
s167.667 108 275 108c98 0 180.667 -29.167 248 -87.5s101 -131.5 101 -219.5c0 -74 -25.333 -139.667 -76 -197s-104.334 -86 -161.001 -86c-20 0 -36.5 5.66699 -49.5 17s-19.167 28.333 -18.5 51h-2c-46.667 -45.333 -93.667 -68 -141 -68
c-39.333 0 -71.166 13.167 -95.499 39.5s-36.5 62.166 -36.5 107.499c0 72.667 23.5 139.5 70.5 200.5s104.833 91.5 173.5 91.5c54.667 0 92 -27.667 112 -83h2z" />
    <glyph glyph-name="A" unicode="A" horiz-adv-x="500" 
d="M139 262h222l-110 402h-2zM-1 0l211 714h80l211 -714h-68l-58 208h-250l-58 -208h-68z" />
    <glyph glyph-name="B" unicode="B" horiz-adv-x="500" 
d="M120 660v-260h101c106.667 0 160 43.333 160 130c0 46.667 -12 80 -36 100s-61.667 30 -113 30h-112zM120 346v-292h119c110 0 165 48.667 165 146s-55 146 -165 146h-119zM56 0l-0.000976562 713.999h197c66 0 114.5 -15.833 145.5 -47.5s46.5 -75.5 46.5 -131.5
c0 -36.667 -9.66699 -69.5 -29 -98.5s-46.333 -47.833 -81 -56.5v-2c43.333 -8.66699 76.333 -28.667 99 -60s34 -70.666 34 -117.999c0 -62.667 -19.167 -111.667 -57.5 -147s-91.166 -53 -158.499 -53h-196z" />
    <glyph glyph-name="C" unicode="C" horiz-adv-x="519" 
d="M426 242l64 -0.00195312c-4.66699 -81.333 -25.167 -144 -61.5 -188s-86.5 -66 -150.5 -66c-152 0 -228 123 -228 369s76 369 228 369c68.667 0 120 -20.833 154 -62.5s51 -94.167 51 -157.5h-64c0 50 -12.333 90.167 -37 120.5s-59.334 45.5 -104 45.5
c-53.333 0 -94 -24.667 -122 -74s-42 -129.666 -42 -240.999s14 -191.666 42 -240.999s68.667 -74 122 -74c44 0 78.833 17.667 104.5 53s40.167 84.333 43.5 147z" />
    <glyph glyph-name="D" unicode="D" horiz-adv-x="537" 
d="M56 0v714h172c99.333 0 167.333 -28.5 204 -85.5s55 -147.5 55 -271.5s-18.333 -214.5 -55 -271.5s-104.667 -85.5 -204 -85.5h-172zM120 660v-606h104c72 0 123.167 22 153.5 66s45.5 122.667 45.5 236c0 114.667 -15.167 194 -45.5 238s-81.5 66 -153.5 66h-104z" />
    <glyph glyph-name="E" unicode="E" horiz-adv-x="444" 
d="M56 0v714h354v-54h-290v-260h271v-54h-271v-292h299v-54h-363z" />
    <glyph glyph-name="F" unicode="F" 
d="M56 0v714h354v-54h-290v-260h271v-54h-271v-346h-64z" />
    <glyph glyph-name="G" unicode="G" horiz-adv-x="537" 
d="M427 310l-169.001 -0.00195312v54h229v-364h-50v118h-2c-10.667 -39.333 -30.5 -70.833 -59.5 -94.5s-61.5 -35.5 -97.5 -35.5c-152 0 -228 123 -228 369s76 369 228 369c65.333 0 114.833 -19 148.5 -57s52.5 -89.667 56.5 -155h-64c0 45.333 -12.167 83 -36.5 113
s-59.166 45 -104.499 45c-53.333 0 -94 -24.667 -122 -74s-42 -129.666 -42 -240.999s14 -191.666 42 -240.999s68.667 -74 122 -74c48 0 84.833 21.333 110.5 64s38.5 105.667 38.5 189v15z" />
    <glyph glyph-name="H" unicode="H" horiz-adv-x="519" 
d="M399 0v356h-279v-356h-64v714h64v-304h279v304h64v-714h-64z" />
    <glyph glyph-name="I" unicode="I" horiz-adv-x="184" 
d="M60 0v714h64v-714h-64z" />
    <glyph glyph-name="J" unicode="J" horiz-adv-x="407" 
d="M19 180l0.000976562 29h64v-17c0 -50 7.33301 -87.5 22 -112.5s39 -37.5 73 -37.5c37.333 0 64.833 10.333 82.5 31s26.5 58.334 26.5 113.001v528h64v-535c0 -62 -14.333 -109.333 -43 -142s-71 -49 -127 -49c-52.667 0 -92.834 15.167 -120.501 45.5
s-41.5 79.166 -41.5 146.499z" />
    <glyph glyph-name="K" unicode="K" horiz-adv-x="480" 
d="M56 0v714h64v-374h2l273 374h68l-218 -298l242 -416h-68l-214 362l-85 -112v-250h-64z" />
    <glyph glyph-name="L" unicode="L" 
d="M56 0v714h64v-660h296v-54h-360z" />
    <glyph glyph-name="M" unicode="M" horiz-adv-x="686" 
d="M62 0v714h111l172 -634h2l172 634h105v-714h-64v654h-2l-185 -654h-60l-185 654h-2v-654h-64z" />
    <glyph glyph-name="N" unicode="N" horiz-adv-x="537" 
d="M56 0v714h86l273 -622h2v622h64v-714h-86l-273 622h-2v-622h-64z" />
    <glyph glyph-name="O" unicode="O" horiz-adv-x="556" 
d="M50 357c0 246 76 369 228 369s228 -123 228 -369s-76 -369 -228 -369s-228 123 -228 369zM114 357c0 -111.333 14 -191.666 42 -240.999s68.667 -74 122 -74s94 24.667 122 74s42 129.666 42 240.999s-14 191.666 -42 240.999s-68.667 74 -122 74s-94 -24.667 -122 -74
s-42 -129.666 -42 -240.999z" />
    <glyph glyph-name="P" unicode="P" horiz-adv-x="480" 
d="M120 660v-296h109c46 0 82.833 11.667 110.5 35s41.5 61 41.5 113s-12.667 89.667 -38 113s-63.333 35 -114 35h-109zM56 0v714h193c66.667 0 116 -17.833 148 -53.5s48 -85.167 48 -148.5c0 -60.667 -17.167 -109.5 -51.5 -146.5s-89.833 -55.5 -166.5 -55.5h-107v-310
h-64z" />
    <glyph glyph-name="Q" unicode="Q" horiz-adv-x="556" 
d="M479 -38l-72 70c-34 -29.333 -77 -44 -129 -44c-152 0 -228 123 -228 369s76 369 228 369s228 -123 228 -369c0 -131.333 -21.667 -227 -65 -287l73 -70zM368 74l-81 77.999l35 38l77 -75c28.667 52 43 132.667 43 242c0 111.333 -14 191.666 -42 240.999
s-68.667 74 -122 74s-94 -24.667 -122 -74s-42 -129.666 -42 -240.999s14 -191.666 42 -240.999s68.667 -74 122 -74c36 0 66 10.667 90 32z" />
    <glyph glyph-name="R" unicode="R" horiz-adv-x="500" 
d="M56 0l0.000976562 714.001h213c58.667 0 104.167 -15.833 136.5 -47.5s48.5 -75.5 48.5 -131.5c0 -46.667 -10.333 -86.334 -31 -119c-20.667 -32.667 -53.334 -53.334 -98 -62v-2c43.333 -4 74.166 -19.167 92.499 -45.5c18.334 -26.333 28.167 -67.5 29.499 -123.5
l2 -78c1.33301 -49.333 11.333 -84.333 30 -105h-75c-11.333 19.333 -17.666 52.666 -18.999 99.999l-2 60c-2 64.667 -12.167 108.5 -30.5 131.5s-55.5 34.5 -111.5 34.5h-121v-326h-64zM120.001 660.001l-0.000976562 -280h110c51.333 0 90.833 11.833 118.5 35.5
s41.5 58.5 41.5 104.5s-11.667 80.833 -35 104.5s-62.666 35.5 -117.999 35.5h-117z" />
    <glyph glyph-name="S" unicode="S" horiz-adv-x="480" 
d="M433 531l-63.998 -0.00292969c0 44.668 -10.667 79.335 -32 104c-21.333 24.667 -53.333 37 -96 37c-42 0 -75 -12.167 -99 -36.5s-36 -54.833 -36 -91.5c0 -25.334 5 -47.334 15 -66c10 -18.667 23 -33 39 -43s34.5 -19.5 55.5 -28.5s42.167 -16.333 63.5 -22
s42.5 -13.5 63.5 -23.5s39.5 -21.167 55.5 -33.5s29 -29.666 39 -51.999s15 -48.5 15 -78.5c0 -67.333 -19.333 -119 -58 -155s-91.334 -54 -158.001 -54c-67.333 0 -118.833 18 -154.5 54s-53.5 88.667 -53.5 158v21h64v-27c0 -46.667 12.167 -83.667 36.5 -111
s59.5 -41 105.5 -41c47.333 0 84.833 12.167 112.5 36.5s41.5 60.5 41.5 108.5c0 28.667 -6.33301 52.834 -19 72.501s-29.167 34.667 -49.5 45s-42.833 19.5 -67.5 27.5s-49.334 16.5 -74.001 25.5s-47.167 20.167 -67.5 33.5s-36.833 32.333 -49.5 57
s-19 54.334 -19 89.001c0 56.668 17.5 102.335 52.5 137c35 34.667 83.167 52 144.5 52c129.333 0 194 -65 194 -195z" />
    <glyph glyph-name="T" unicode="T" horiz-adv-x="444" 
d="M190 0v660h-184v54h432v-54h-184v-660h-64z" />
    <glyph glyph-name="U" unicode="U" horiz-adv-x="500" 
d="M46 200l-0.00195312 514h64v-513c0 -106 46.667 -159 140 -159s140 53 140 159v513h64v-514c0 -73.333 -17.167 -127 -51.5 -161s-85.166 -51 -152.499 -51s-118.166 17 -152.499 51s-51.5 87.667 -51.5 161z" />
    <glyph glyph-name="V" unicode="V" horiz-adv-x="462" 
d="M191 0l-188 714h68l159 -646h2l159 646h68l-188 -714h-80z" />
    <glyph glyph-name="W" unicode="W" horiz-adv-x="722" 
d="M162 0l-151 714h64l125 -628h2l122 628h74l122 -628h2l125 628h64l-151 -714h-80l-118 628h-2l-118 -628h-80z" />
    <glyph glyph-name="X" unicode="X" horiz-adv-x="462" 
d="M395 0l-166 307l-166 -307h-64l196 364l-183 350h68l152 -290l154 290h64l-184 -350l197 -364h-68z" />
    <glyph glyph-name="Y" unicode="Y" horiz-adv-x="444" 
d="M190 0v286l-193 428h68l157 -356l157 356h68l-193 -428v-286h-64z" />
    <glyph glyph-name="Z" unicode="Z" horiz-adv-x="462" 
d="M22 0v60l348 600h-328v54h393v-60l-342 -600h347v-54h-418z" />
    <glyph glyph-name="bracketleft" unicode="[" horiz-adv-x="241" 
d="M83 -184v898h158v-50h-98v-798h98v-50h-158z" />
    <glyph glyph-name="backslash" unicode="\" horiz-adv-x="278" 
d="M-10 726h54l244 -738h-54z" />
    <glyph glyph-name="bracketright" unicode="]" horiz-adv-x="241" 
d="M0 -184v50h98v798h-98v50h158v-898h-158z" />
    <glyph glyph-name="asciicircum" unicode="^" horiz-adv-x="600" 
d="M502 243l-202 393l-202 -393h-54l231 453h50l231 -453h-54z" />
    <glyph glyph-name="underscore" unicode="_" horiz-adv-x="500" 
d="M0 -125v50h500v-50h-500z" />
    <glyph glyph-name="grave" unicode="`" horiz-adv-x="186" 
d="M-10 738h71l75 -141h-48z" />
    <glyph glyph-name="a" unicode="a" 
d="M107 373l-60.001 0.000976562c0 113.333 54.667 170 164 170c100 0 150 -47 150 -141v-314c0 -29.333 10.333 -44 31 -44h17v-44c-11.333 -4 -20.666 -6 -27.999 -6c-26 0 -45.333 4.5 -58 13.5s-19 26.5 -19 52.5v18h-2c-20.667 -60 -66.334 -90 -137.001 -90
c-45.333 0 -79.166 13.167 -101.499 39.5s-33.5 63.166 -33.5 110.499c0 78 35.667 127 107 147l113 32c21.334 6 35.167 14 41.5 24s9.5 30 9.5 60c0 61.333 -30.667 92 -92 92c-68 0 -102 -40 -102 -120zM300.999 188.001l0.000976562 111.999h-2
c-4.66699 -14 -26 -25.667 -64 -35l-50 -13c-30.667 -8 -53.5 -20.667 -68.5 -38s-22.5 -41.333 -22.5 -72c0 -31.333 7.5 -56.5 22.5 -75.5s35.5 -28.5 61.5 -28.5c37.333 0 67.166 13.333 89.499 40s33.5 63.334 33.5 110.001z" />
    <glyph glyph-name="b" unicode="b" horiz-adv-x="444" 
d="M52 0l-0.00195312 714h60v-263h2c6.66699 28.667 20.834 51.167 42.501 67.5s48.834 24.5 81.501 24.5c113.333 0 170 -92.333 170 -277c0 -185.333 -56.667 -278 -170 -278c-31.333 0 -58.833 9 -82.5 27s-39.5 42.333 -47.5 73h-2v-88h-54zM111.998 266
c0 -47.333 3.00293 -86.835 9.00293 -118.502s14.833 -55 26.5 -70s23.667 -25.333 36 -31s27.166 -8.5 44.499 -8.5c16.667 0 31.167 2.83301 43.5 8.5s24.5 16 36.5 31s21 38.333 27 70s9 71.167 9 118.5c0 46.667 -3 85.834 -9 117.501s-14.833 55 -26.5 70
c-11.668 15 -23.835 25.333 -36.501 31c-12.667 5.66699 -27.334 8.5 -44.001 8.5c-17.334 0 -32.167 -2.83301 -44.5 -8.5s-24.333 -16 -36 -31s-20.5 -38.167 -26.5 -69.5s-9 -70.666 -9 -117.999z" />
    <glyph glyph-name="c" unicode="c" horiz-adv-x="407" 
d="M317 176l60.001 0.00195312c-4.66699 -57.333 -21.834 -103 -51.5 -137c-29.667 -34 -68.834 -51 -117.5 -51c-118.667 0 -178 92.667 -178 278c0 91.333 15.667 160.333 47 207s76.666 70 135.999 70c50 0 89 -14.667 117 -44s43.667 -71.333 47 -126h-60
c-3.33301 41.334 -13.5 71.667 -30.5 91s-41.5 29 -73.5 29c-37.333 0 -66.5 -16.333 -87.5 -49s-31.5 -92.334 -31.5 -179c0 -38.667 2.16699 -72.167 6.5 -100.5s10 -50.333 17 -66s15.667 -28.334 26 -38.001s20.333 -15.834 30 -18.501s20.834 -4 33.5 -4
c63.333 0 100 46 110 138z" />
    <glyph glyph-name="d" unicode="d" horiz-adv-x="444" 
d="M338 0l-0.00195312 88h-2c-8 -30.667 -23.833 -55 -47.5 -73s-51.167 -27 -82.5 -27c-113.333 0 -170 92.667 -170 278c0 184.667 56.667 277 170 277c32.667 0 59.834 -8.16699 81.501 -24.5s35.834 -38.833 42.501 -67.5h2v263h60v-714h-54zM99.998 266
c0 -47.333 3.00293 -86.833 9.00293 -118.5s15 -55 27 -70s24.167 -25.333 36.5 -31s26.833 -8.5 43.5 -8.5c17.333 0 32.166 2.83301 44.499 8.5s24.333 16 36 31s20.5 38.333 26.5 70s9 71.167 9 118.5c0 47.334 -3 86.667 -9 118s-14.833 54.5 -26.5 69.5
s-23.667 25.333 -36 31c-12.334 5.66699 -27.167 8.5 -44.5 8.5c-16.667 0 -31.334 -2.83301 -44.001 -8.5s-24.834 -16 -36.501 -31s-20.5 -38.333 -26.5 -70s-9 -70.834 -9 -117.5z" />
    <glyph glyph-name="e" unicode="e" 
d="M325 176h60c-4.66699 -57.333 -22 -103 -52 -137s-69.667 -51 -119 -51c-118.667 0 -178 92.667 -178 278c0 91.333 15.667 160.333 47 207s76.666 70 135.999 70c58.667 0 101.834 -20.833 129.501 -62.5s41.5 -106.834 41.5 -195.5v-22h-290v-25
c0 -71.333 10.5 -122.5 31.5 -153.5s48.167 -46.5 81.5 -46.5c64.667 0 102 46 112 138zM100 313l226 -0.000976562c-0.666992 64.667 -10.167 110.834 -28.5 138.501s-46.5 41.5 -84.5 41.5s-66.167 -13.833 -84.5 -41.5s-27.833 -73.834 -28.5 -138.5z" />
    <glyph glyph-name="f" unicode="f" horiz-adv-x="241" 
d="M80 0v481h-73v50h73v63c0 42 7.66699 73.833 23 95.5s46.333 32.5 93 32.5c14.667 0 27.334 -1 38 -3v-50c-9.33301 2 -19 3 -29 3c-22.667 0 -39.167 -5.66699 -49.5 -17c-10.333 -11.3359 -15.5 -31.6689 -15.5 -61v-63h94v-50h-94v-481h-60z" />
    <glyph glyph-name="g" unicode="g" horiz-adv-x="444" 
d="M332 449l-0.000976562 82h54v-493c0 -148 -58 -222 -174 -222c-50 0 -88.667 11.833 -116 35.5s-41.333 55.167 -42 94.5h60c0 -24 9.83301 -43.333 29.5 -58s43.167 -22 70.5 -22c36.667 0 64.5 12.333 83.5 37s28.5 60.667 28.5 108v84h-2
c-9.33301 -31.333 -25.166 -55 -47.499 -71s-47.833 -24 -76.5 -24c-48 0 -87.333 20 -118 60s-46 108.667 -46 206c0 184.667 56.667 277 170 277c29.333 0 55 -8.16699 77 -24.5s37.667 -39.5 47 -69.5h2zM99.999 272c0 -81.333 9.5 -138.666 28.5 -171.999
s47.167 -50 84.5 -50s65.5 16.667 84.5 50s28.5 90.666 28.5 171.999c0 80.667 -9.5 137.667 -28.5 171s-47.167 50 -84.5 50s-65.5 -16.667 -84.5 -50s-28.5 -90.333 -28.5 -171z" />
    <glyph glyph-name="h" unicode="h" horiz-adv-x="444" 
d="M58 0v714h60v-257h2c7.33301 26.667 22.833 47.667 46.5 63s51.5 23 83.5 23c42.667 0 76 -11.667 100 -35s36 -59 36 -107v-401h-60v384c0 72.667 -30.333 109 -91 109c-35.334 0 -63.667 -12.5 -85 -37.5s-32 -57.833 -32 -98.5v-357h-60z" />
    <glyph glyph-name="i" unicode="i" horiz-adv-x="184" 
d="M62 0v531h60v-531h-60zM62 612v102h60v-102h-60z" />
    <glyph glyph-name="j" unicode="j" horiz-adv-x="184" 
d="M62 -42v573h60v-593c0 -81.333 -38.333 -122 -115 -122c-12 0 -23 1 -33 3v50c14 -2 21.667 -3 23 -3c22.667 0 39.167 6.5 49.5 19.5s15.5 37.167 15.5 72.5zM62 612v102h60v-102h-60z" />
    <glyph glyph-name="k" unicode="k" horiz-adv-x="407" 
d="M52 0v714h60v-447h2l206 264h74l-160 -197l189 -334h-74l-158 280l-79 -94v-186h-60z" />
    <glyph glyph-name="l" unicode="l" horiz-adv-x="184" 
d="M62 0v714h60v-714h-60z" />
    <glyph glyph-name="m" unicode="m" horiz-adv-x="686" 
d="M62 0l0.000976562 531h54v-74h2c27.333 57.333 72.333 86 135 86c31.334 0 56.667 -8.5 76 -25.5s31 -39.5 35 -67.5h2c25.333 62 70.333 93 135 93c38.668 0 68.835 -11.333 90.501 -34c21.667 -22.667 32.5 -57 32.5 -103v-406h-60v397c0 64 -27.667 96 -83 96
c-30.668 0 -56.335 -12.667 -77.001 -38c-20.667 -25.333 -31 -58 -31 -98v-357h-60v397c0 64 -27.667 96 -83 96c-30.667 0 -56.334 -12.667 -77.001 -38s-31 -58 -31 -98v-357h-60z" />
    <glyph glyph-name="n" unicode="n" horiz-adv-x="444" 
d="M58 0l0.000976562 531h54v-74h2c29.333 57.333 74.666 86 135.999 86c42.667 0 76 -11.667 100 -35s36 -59 36 -107v-401h-60v384c0 72.667 -30.333 109 -91 109c-35.334 0 -63.667 -12.5 -85 -37.5s-32 -57.833 -32 -98.5v-357h-60z" />
    <glyph glyph-name="o" unicode="o" 
d="M30 266c0 91.333 15.666 160.333 46.999 207s76.666 70 135.999 70c59.334 0 104.667 -23.333 136 -70s47 -115.667 47 -207s-15.667 -160.5 -47 -207.5s-76.666 -70.5 -135.999 -70.5s-104.666 23.5 -135.999 70.5s-47 116.167 -47 207.5zM93.999 266
c0 -152 39.667 -228 119 -228s119 76 119 228c0 151.333 -39.667 227 -119 227s-119 -75.667 -119 -227z" />
    <glyph glyph-name="p" unicode="p" horiz-adv-x="444" 
d="M52 -176l0.00195312 707h54v-76h2c10 26 26.167 47.167 48.5 63.5s49.833 24.5 82.5 24.5c58 0 100.667 -23 128 -69s41 -115.667 41 -209c0 -184.667 -56.667 -277 -170 -277c-32.667 0 -59.834 8.16699 -81.501 24.5s-35.834 38.833 -42.501 67.5h-2v-256h-60z
M344.002 265c0 88 -10.334 147.998 -31.001 179.998s-48.334 48 -83 48c-34.667 0 -62.667 -15.667 -84 -47c-22.667 -32 -34 -92.333 -34 -181c0 -47.333 3 -86.666 9 -117.999s14.833 -54.5 26.5 -69.5s23.667 -25.333 36 -31s27.166 -8.5 44.499 -8.5
c16.667 0 31.334 2.83301 44.001 8.5s24.834 16 36.501 31s20.5 38.333 26.5 70s9 70.834 9 117.501z" />
    <glyph glyph-name="q" unicode="q" horiz-adv-x="444" 
d="M332 -176l0.000976562 256h-2c-6.66797 -28.667 -20.835 -51.167 -42.5 -67.5c-21.667 -16.333 -48.834 -24.5 -81.501 -24.5c-113.333 0 -170 92.333 -170 277c0 93.333 13.667 163 41 209s70 69 128 69c32.667 0 60.167 -8.16699 82.5 -24.5s38.5 -37.5 48.5 -63.5h2
v76h54v-707h-60zM100.001 265c0 -46.667 3 -85.832 9 -117.499s14.833 -55 26.5 -70s23.834 -25.333 36.501 -31s27.334 -8.5 44.001 -8.5c17.333 0 32.166 2.83301 44.499 8.5s24.333 16 36 31s20.5 38.167 26.5 69.5s9 70.666 9 117.999c0 88.667 -11.333 149 -34 181
c-21.333 31.333 -49.333 47 -84 47s-62.334 -16 -83.001 -48s-31 -92 -31 -180z" />
    <glyph glyph-name="r" unicode="r" horiz-adv-x="278" 
d="M58 0l-0.000976562 531h60v-83h2c11.333 30 28.833 53.333 52.5 70s50.834 25 81.501 25c6.66699 0 13.667 -1 21 -3v-60c-10 2 -19.667 3 -29 3c-36 0 -66.333 -13 -91 -39s-37 -63.333 -37 -112v-332h-60z" />
    <glyph glyph-name="s" unicode="s" horiz-adv-x="389" 
d="M226 231l-84 32.999c-68 26 -102 68 -102 126c0 52 14.333 90.5 43 115.5s67 37.5 115 37.5c97.333 0 146 -49.333 146 -148v-15h-60v15c0 65.333 -29 98 -87 98c-64.667 0 -97 -30 -97 -90c0 -20.667 5 -38 15 -52s29 -26.333 57 -37l87 -33
c66 -24.667 99 -69.667 99 -135c0 -47.333 -13.833 -85.5 -41.5 -114.5s-68.5 -43.5 -122.5 -43.5c-56 0 -97.167 12.833 -123.5 38.5s-39.5 67.834 -39.5 126.501v17h60v-14c0 -78.667 34 -118 102 -118c32 0 57.5 8.5 76.5 25.5s28.5 40.167 28.5 69.5
c0 24 -5.5 43.833 -16.5 59.5s-29.5 28.5 -55.5 38.5z" />
    <glyph glyph-name="t" unicode="t" horiz-adv-x="241" 
d="M80 87l0.000976562 394.001h-73v50h73v147h60v-147h94v-50h-94v-381c0 -20.667 4.5 -35.167 13.5 -43.5s23.5 -12.5 43.5 -12.5c11.333 0 23.666 2 36.999 6v-50c-6.66699 -4 -20.667 -6 -42 -6c-41.333 0 -70.333 6.66699 -87 20s-25 37.666 -25 72.999z" />
    <glyph glyph-name="u" unicode="u" horiz-adv-x="444" 
d="M58 130l-0.000976562 401h60v-374c0 -42.667 7.33301 -73.167 22 -91.5s38 -27.5 70 -27.5c34 0 61.833 12.5 83.5 37.5s32.5 57.833 32.5 98.5v357h60v-531h-54v74h-2c-29.333 -57.333 -74.666 -86 -135.999 -86c-42.667 0 -76 11.667 -100 35s-36 59 -36 107z" />
    <glyph glyph-name="v" unicode="v" horiz-adv-x="370" 
d="M155 0l-148 531h64l118 -463h2l108 463h64l-140 -531h-68z" />
    <glyph glyph-name="w" unicode="w" horiz-adv-x="592" 
d="M128 0l-118 531h64l90 -471h2l96 471h74l90 -471h2l90 471h64l-118 -531h-71l-96 471h-2l-96 -471h-71z" />
    <glyph glyph-name="x" unicode="x" horiz-adv-x="370" 
d="M296 0l-111 228l-111 -228h-68l143 274l-137 257h68l105 -210l105 210h68l-137 -257l143 -274h-68z" />
    <glyph glyph-name="y" unicode="y" horiz-adv-x="370" 
d="M160 -5l-152.999 536h64l119 -460h2l107 460h64l-155 -574c-14 -52 -30.833 -87.167 -50.5 -105.5s-49.834 -27.5 -90.501 -27.5c-10.667 0 -24 0.666992 -40 2v50c17.333 -1.33301 30.333 -2 39 -2c19.333 0 35.333 5.16699 48 15.5s23 28.833 31 55.5z" />
    <glyph glyph-name="z" unicode="z" horiz-adv-x="352" 
d="M18 0v50l252 431h-239v50h303v-50l-252 -431h252v-50h-316z" />
    <glyph glyph-name="braceleft" unicode="{" horiz-adv-x="241" 
d="M91 419v174.999c0 80 35.667 120 107 120h51v-50h-50c-32 0 -48 -22.667 -48 -68v-186c0.666992 -86.667 -22 -134.667 -68 -144v-2c46 -9.33301 68.667 -57.333 68 -144v-186c0 -45.333 16 -68 48 -68h50v-50h-51c-71.333 0 -107 40 -107 120v175
c0 50 -4.16699 83.833 -12.5 101.5s-23.5 26.834 -45.5 27.5v50c22 0.666992 37.167 9.83398 45.5 27.501s12.5 51.5 12.5 101.5z" />
    <glyph glyph-name="bar" unicode="|" horiz-adv-x="222" 
d="M86 -12v738h50v-738h-50z" />
    <glyph glyph-name="braceright" unicode="}" horiz-adv-x="241" 
d="M150 111v-174.998c0 -80 -35.667 -120 -107 -120h-51v50h50c32 0 48 22.667 48 68v186c-0.666992 86.667 22 134.667 68 144v2c-46 9.33301 -68.667 57.333 -68 144v186c0 45.333 -16 68 -48 68h-50v50h51c71.333 0 107 -40 107 -120v-175
c0 -50 4.16699 -83.833 12.5 -101.5c8.33301 -17.668 23.5 -26.835 45.5 -27.501v-50c-22 -0.666992 -37.167 -9.83398 -45.5 -27.501s-12.5 -51.5 -12.5 -101.5z" />
    <glyph glyph-name="asciitilde" unicode="~" horiz-adv-x="600" 
d="M495 316l36.001 -36c-22.668 -31.333 -42.835 -53.5 -60.501 -66.5c-17.667 -13 -39.167 -19.5 -64.5 -19.5c-28 0 -62 11 -102 33c-42.667 23.333 -81 35 -115 35s-62 -24 -84 -72l-36 36c30 57.333 71.667 86 125 86c25.333 0 62.333 -10.667 111 -32
c54.667 -24 88.667 -36 102 -36c15.333 0 29.833 5.66699 43.5 17c13.667 11.334 28.5 29.667 44.5 55z" />
    <glyph glyph-name="uni00A0" unicode="&#xa0;" horiz-adv-x="240" 
 />
    <glyph glyph-name="exclamdown" unicode="&#xa1;" horiz-adv-x="240" 
d="M86 -172v226l12 302h44l12 -302v-226h-68zM86 440v102h68v-102h-68z" />
    <glyph glyph-name="cent" unicode="&#xa2;" horiz-adv-x="480" 
d="M232 38l0.000976562 455.001c-32 -4.66699 -57 -23.834 -75 -57.5c-18 -33.667 -27 -90.5 -27 -170.5c0 -44.667 2.66699 -82.334 8 -113.001s13.166 -53.834 23.499 -69.501s21 -26.667 32 -33s23.833 -10.166 38.5 -11.499zM232.001 -94.999l-0.00195312 82.999
c-110.667 6 -166 98.667 -166 278c0 86.667 14.333 153.334 43 200.001c28.667 46.668 69.667 72.335 123 77.001v83h30v-83c46.667 -2.66699 82.834 -18.667 108.501 -48s40.167 -70 43.5 -122h-60c-6 74 -36.667 114 -92 120v-455c52.667 11.333 83.334 57.333 92.001 138
h60c-4 -53.333 -19.333 -96.833 -46 -130.5s-62 -52.834 -106 -57.501v-83h-30z" />
    <glyph glyph-name="sterling" unicode="&#xa3;" horiz-adv-x="480" 
d="M444 504l-60.002 -0.000976562c-5.33301 102.667 -51.666 154 -138.999 154c-38.667 0 -70.667 -10.833 -96 -32.5s-38 -51.167 -38 -88.5c0 -32.667 13.333 -73.334 40 -122l24 -45h151v-44h-134c11.333 -18 17 -42.333 17 -73c0 -71.333 -39 -137.666 -117 -198.999
l2 -2c32 16 58 24 78 24c3.33301 0 26 -6 68 -18c36 -10.667 60.333 -16 73 -16c32.667 0 72.667 16.667 120 50l27 -46c-42 -38.667 -93.667 -58 -155 -58c-16.667 0 -42.834 6.33301 -78.5 19c-35.667 12.667 -62.167 19 -79.5 19c-24 0 -56 -10.667 -96 -32l-31 49
c38.667 28 69.167 59.333 91.5 94s33.5 70 33.5 106c0 27.333 -7 55 -21 83h-98v44h81l-34 65c-17.333 33.333 -26 65.333 -26 96c0 54.667 19.333 97.834 58 129.5c38.667 31.667 86.667 47.5 144 47.5c60.667 0 108.334 -18.667 143.001 -56
c34.667 -37.335 52 -86.668 52 -148z" />
    <glyph glyph-name="currency" unicode="&#xa4;" horiz-adv-x="480" 
d="M57 128l-35 37l47 47c-32.667 40 -49 85.333 -49 136c0 51.333 16.333 97 49 137l-47 47l35 36l47 -47c40 31.333 85.333 47 136 47c52 0 97.667 -16 137 -48l47 48l35 -36l-47 -47c32 -39.333 48 -85 48 -137c0 -50.667 -15.667 -96 -47 -136l46 -47l-35 -37l-47 49
c-40 -32.667 -85.667 -49 -137 -49s-97 16 -137 48zM74 348c0 -48 16.667 -88.333 50 -121s72 -49 116 -49s82.667 16.333 116 49s50 73 50 121s-16.667 88.333 -50 121s-72 49 -116 49s-82.667 -16.333 -116 -49s-50 -73 -50 -121z" />
    <glyph glyph-name="yen" unicode="&#xa5;" horiz-adv-x="480" 
d="M208 0v174h-140v44h140v63l-11 24h-129v44h109l-162 347h68l157 -344l157 344h68l-162 -347h109v-44h-129l-11 -24v-63h140v-44h-140v-174h-64z" />
    <glyph glyph-name="brokenbar" unicode="&#xa6;" horiz-adv-x="222" 
d="M86 -12v270h50v-270h-50zM86 456v270h50v-270h-50z" />
    <glyph glyph-name="section" unicode="&#xa7;" horiz-adv-x="481" 
d="M405 577l-59.999 0.00195312c0 30 -9.5 54 -28.5 72s-43.833 27 -74.5 27c-30 0 -54.5 -8.33301 -73.5 -25s-28.5 -37.334 -28.5 -62.001c0 -17.3359 5.66699 -33.1689 17 -47.5c11.333 -14.333 31.333 -30.833 60 -49.5l132 -86c36 -23.333 61.167 -46 75.5 -68
s21.5 -48.667 21.5 -80c0 -29.333 -8.83301 -56.5 -26.5 -81.5s-40.167 -44.167 -67.5 -57.5c40 -32 60 -71.333 60 -118c0 -44 -14.833 -80.167 -44.5 -108.5s-70.167 -42.5 -121.5 -42.5c-52 0 -93.833 14.333 -125.5 43s-47.5 65 -47.5 109v20h60
c0 -37.333 9.16699 -67 27.5 -89s46.166 -33 83.499 -33c30.667 0 55.667 8.66699 75 26s29 39 29 65c0 23.333 -6.16699 43.5 -18.5 60.5s-33.833 35.167 -64.5 54.5l-120 77c-40 26 -68.333 50.167 -85 72.5s-25 49.5 -25 81.5c0 28.667 10.167 56 30.5 82
s44.5 44.333 72.5 55c-41.333 29.333 -62 66.666 -62 111.999c0 43.333 16.167 77.5 48.5 102.5s72.5 37.5 120.5 37.5c50 0 89.167 -13.667 117.5 -41s42.5 -63.333 42.5 -108zM319.001 354.002l-143 93c-54 -29.333 -81 -64.666 -81 -105.999
c0 -34.667 28 -70.334 84 -107.001l132 -86c50 23.333 75 61 75 113c0 32.667 -22.333 63.667 -67 93z" />
    <glyph glyph-name="dieresis" unicode="&#xa8;" horiz-adv-x="186" 
d="M-12 618v102h60v-102h-60zM138 618v102h60v-102h-60z" />
    <glyph glyph-name="copyright" unicode="&#xa9;" horiz-adv-x="800" 
d="M545 281l54 0.000976562c-11.333 -47.333 -33.833 -85.5 -67.5 -114.5s-73.5 -43.5 -119.5 -43.5c-66.667 0 -120.5 22.167 -161.5 66.5s-61.5 100.166 -61.5 167.499c0 68.667 19.667 124.667 59 168s93 65 161 65c50 0 92.5 -13.5 127.5 -40.5
s55.833 -64.5 62.5 -112.5h-54c-6.66699 30 -22 54.667 -46 74s-54 29 -90 29c-52.667 0 -93.5 -17.167 -122.5 -51.5s-43.5 -78.166 -43.5 -131.499c0 -50 15.333 -93.167 46 -129.5s71.667 -54.5 123 -54.5c34.667 0 64 10.167 88 30.5s39 46.166 45 77.499zM31 357.001
c0 102 36 189 108 261s159 108 261 108s189 -36 261 -108s108 -159 108 -261s-36 -189 -108 -261s-159 -108 -261 -108s-189 36 -261 108s-108 159 -108 261zM81 357.001c0 -88 31.167 -163.166 93.5 -225.499s137.5 -93.5 225.5 -93.5s163.167 31.167 225.5 93.5
s93.5 137.5 93.5 225.5s-31.167 163.167 -93.5 225.5s-137.5 93.5 -225.5 93.5s-163.167 -31.167 -225.5 -93.5c-62.333 -62.334 -93.5 -137.501 -93.5 -225.501z" />
    <glyph glyph-name="ordfeminine" unicode="&#xaa;" horiz-adv-x="277" 
d="M65 602h-49.998c0 35.333 9.16699 61.833 27.5 79.5s48.166 26.5 89.499 26.5c72.667 0 109 -28.333 109 -85v-185c0 -18 6.66699 -27 20 -27h11v-38c-9.33301 -4 -20.666 -6 -33.999 -6c-30 0 -45 13.333 -45 40v14h-2c-12.667 -36 -42.334 -54 -89.001 -54
c-31.333 0 -55.333 8.83301 -72 26.5s-25 40.167 -25 67.5c0 50 26.333 81.667 79 95l74 19c13.333 3.33301 22.166 7.83301 26.499 13.5c4.33301 5.66895 6.5 15.8359 6.5 30.5c0 14.667 -5.5 25.834 -16.5 33.5c-11 7.66699 -25.5 11.5 -43.5 11.5
c-22 0 -38.5 -5.66699 -49.5 -17s-16.5 -26.333 -16.5 -45zM191.002 499l0.000976562 51.999h-2c-2.66699 -7.33301 -16.334 -14.333 -41.001 -21l-33 -8c-37.333 -9.33301 -56 -27.666 -56 -54.999c0 -16 4.83301 -29.333 14.5 -40s22.167 -16 37.5 -16
c24 0 43.333 7.83301 58 23.5s22 37.167 22 64.5z" />
    <glyph glyph-name="guillemotleft" unicode="&#xab;" horiz-adv-x="370" 
d="M188 254v60l125 139v-68l-89 -101l89 -101v-68zM57 254v60l125 139v-68l-89 -101l89 -101v-68z" />
    <glyph glyph-name="logicalnot" unicode="&#xac;" horiz-adv-x="600" 
d="M503 108v217h-456v50h506v-267h-50z" />
    <glyph glyph-name="uni00AD" unicode="&#xad;" horiz-adv-x="333" 
d="M58 311h217v-54h-217v54z" />
    <glyph glyph-name="registered" unicode="&#xae;" horiz-adv-x="800" 
d="M533 138l-130 195h-92v-195h-50v439h169c95.333 0 143 -40.667 143 -122c0 -68.667 -36.667 -109.334 -110 -122l130 -195h-60zM311 533v-156h108c69.333 -1.33301 104 25 104 79c0 51.333 -34.667 77 -104 77h-108zM31 357c0 102 36 189 108 261s159 108 261 108
s189 -36 261 -108s108 -159 108 -261s-36 -189 -108 -261s-159 -108 -261 -108s-189 36 -261 108s-108 159 -108 261zM81 357c0 -88 31.167 -163.166 93.5 -225.499s137.5 -93.5 225.5 -93.5s163.167 31.167 225.5 93.5s93.5 137.5 93.5 225.5s-31.167 163.167 -93.5 225.5
s-137.5 93.5 -225.5 93.5s-163.167 -31.167 -225.5 -93.5c-62.333 -62.334 -93.5 -137.501 -93.5 -225.501z" />
    <glyph glyph-name="macron" unicode="&#xaf;" horiz-adv-x="186" 
d="M-26 646v44h238v-44h-238z" />
    <glyph glyph-name="degree" unicode="&#xb0;" horiz-adv-x="400" 
d="M101 565c0 -27.334 9.66699 -50.666 29 -69.998c19.333 -19.333 42.666 -29 69.999 -29s50.666 9.66699 69.999 29s29 42.666 29 69.999s-9.66699 50.666 -29 69.999s-42.666 29 -69.999 29s-50.666 -9.66699 -69.999 -29c-19.333 -19.3359 -29 -42.6689 -29 -70z
M57 565.001c0 39.333 14 73 42 101s61.667 42 101 42s73 -14 101 -42s42 -61.667 42 -101c0 -39.334 -14 -73.001 -42 -101c-28 -28 -61.667 -42 -101 -42s-73 14 -101 42s-42 61.667 -42 101z" />
    <glyph glyph-name="plusminus" unicode="&#xb1;" horiz-adv-x="600" 
d="M275 334v172h50v-172h228v-50h-228v-172h-50v172h-228v50h228zM47 0v50h506v-50h-506z" />
    <glyph glyph-name="twosuperior" unicode="&#xb2;" horiz-adv-x="312" 
d="M78 573l-53.999 -0.00195312c1.33301 90 47 135 137 135c36.667 0 66.667 -9.5 90 -28.5s35 -47.833 35 -86.5c0 -27.335 -5 -50.668 -15 -69.999c-10 -19.333 -29.333 -39.666 -58 -60.999l-50 -37c-46.667 -34 -74 -67.667 -82 -101h207v-44h-261
c0 34.667 7.66699 64.5 23 89.5s39.666 50.833 72.999 77.5l49 39c22.667 17.333 38.334 34 47 50c8.66699 16 13 34.333 13 55c0 24 -7 42.167 -21 54.5s-32 18.5 -54 18.5c-23.333 0 -42 -7.83301 -56 -23.5s-21.667 -38.167 -23 -67.5z" />
    <glyph glyph-name="threesuperior" unicode="&#xb3;" horiz-adv-x="312" 
d="M119 481l-0.00292969 44.001h18c26.667 0 47.834 6.33301 63.501 19c15.667 12.6689 23.5 29.3359 23.5 50c0 20 -6.33301 36.667 -19 50s-29.667 20 -51 20c-20.667 0 -38.167 -6.66699 -52.5 -20s-21.833 -31.333 -22.5 -54h-54c0 36.667 10.833 65.5 32.5 86.5
s53.834 31.5 96.501 31.5c38.667 0 69 -9.33301 91 -28s33 -44.334 33 -77.001c0 -24.667 -6.33301 -45.667 -19 -63s-31 -28.666 -55 -33.999v-2c27.333 -3.33301 48.833 -14.333 64.5 -33c15.667 -18.668 23.5 -41.335 23.5 -68.001c0 -40 -11.667 -71.667 -35 -95
s-57.666 -35 -102.999 -35c-86 0 -130.667 40.667 -134 122h54c0.666992 -20 8.16699 -38 22.5 -54s33.5 -24 57.5 -24c22 0 41.5 7.33301 58.5 22s25.5 35.667 25.5 63c0 24.667 -8.33301 44 -25 58s-39 21 -67 21h-27z" />
    <glyph glyph-name="acute" unicode="&#xb4;" horiz-adv-x="186" 
d="M125 738h71l-98 -141h-48z" />
    <glyph glyph-name="mu" unicode="&#xb5;" horiz-adv-x="444" 
d="M58 -176v707h60v-374c0 -42.667 7.33301 -73.167 22 -91.5s38 -27.5 70 -27.5c34 0 61.833 12.5 83.5 37.5s32.5 57.833 32.5 98.5v357h60v-531h-54v74h-2c-29.333 -57.333 -74.666 -86 -135.999 -86c-38.667 0 -63.334 8 -74.001 24h-2v-188h-60z" />
    <glyph glyph-name="paragraph" unicode="&#xb6;" horiz-adv-x="481" 
d="M194 -138l-0.000976562 472c-44.667 0 -83.167 17.833 -115.5 53.5s-48.5 78.5 -48.5 128.5c0 62.667 17.333 111.334 52 146c34.667 34.667 80.334 52 137.001 52h182v-852h-50v808h-107v-808h-50z" />
    <glyph glyph-name="periodcentered" unicode="&#xb7;" horiz-adv-x="240" 
d="M65 328c0 14.667 5.5 27.5 16.5 38.5s23.833 16.5 38.5 16.5s27.5 -5.5 38.5 -16.5s16.5 -23.833 16.5 -38.5s-5.5 -27.5 -16.5 -38.5s-23.833 -16.5 -38.5 -16.5s-27.5 5.5 -38.5 16.5s-16.5 23.833 -16.5 38.5z" />
    <glyph glyph-name="cedilla" unicode="&#xb8;" horiz-adv-x="186" 
d="M90 0h37.002l-43 -56l2 -1c7.33301 3.33301 18.666 5 33.999 5c21.333 0 39.5 -6.5 54.5 -19.5s22.5 -28.833 22.5 -47.5c0 -26 -11.167 -46.667 -33.5 -62s-46.5 -23 -72.5 -23c-32.667 0 -62.334 6.66699 -89.001 20l12 31c20 -10 40 -15 60 -15
c22.667 0 39.834 4.16699 51.501 12.5s17.5 18.833 17.5 31.5c0 12 -5.16699 21 -15.5 27s-22.833 9 -37.5 9c-18.667 0 -33.334 -3.33301 -44.001 -10l-13 17z" />
    <glyph glyph-name="onesuperior" unicode="&#xb9;" horiz-adv-x="312" 
d="M144 280v320h-108v36c74.667 0.666992 113.667 24.667 117 72h45v-428h-54z" />
    <glyph glyph-name="ordmasculine" unicode="&#xba;" horiz-adv-x="277" 
d="M9 538c0 113.333 43 170 129 170c86.667 0 130 -56.667 130 -170c0 -114 -43.333 -171 -130 -171c-86 0 -129 57 -129 171zM63 538c0 -43.333 7 -75.3311 21 -95.998s32 -31 54 -31c22.667 0 41 10.333 55 31s21 52.667 21 96s-7 75.166 -21 95.499
s-32.333 30.5 -55 30.5c-22 0 -40 -10.333 -54 -31s-21 -52.334 -21 -95.001z" />
    <glyph glyph-name="guillemotright" unicode="&#xbb;" horiz-adv-x="370" 
d="M57 115v68l89 101l-89 101v68l125 -139v-60zM188 115v68l89 101l-89 101v68l125 -139v-60z" />
    <glyph glyph-name="onequarter" unicode="&#xbc;" horiz-adv-x="721" 
d="M567 0v110h-186v36l176 282h60v-282h54v-36h-54v-110h-50zM425 146h142v214h-2zM90 -30l451 756h50l-451 -756h-50zM144 280v320h-108v36c74.667 0.666992 113.667 24.667 117 72h45v-428h-54z" />
    <glyph glyph-name="onehalf" unicode="&#xbd;" horiz-adv-x="721" 
d="M60 -30l451 756h50l-451 -756h-50zM144 280v320h-108v36c74.667 0.666992 113.667 24.667 117 72h45v-428h-54zM447 293l-53.999 -0.000976562c1.33301 90 47 135 137 135c36.667 0 66.667 -9.5 90 -28.5s35 -47.833 35 -86.5c0 -27.333 -5 -50.666 -15 -69.999
c-10 -19.334 -29.333 -39.667 -58 -61l-50 -37c-46.667 -34 -74 -67.667 -82 -101h207v-44h-261c0 34.667 7.66699 64.5 23 89.5s39.666 50.833 72.999 77.5l49 39c22.6689 17.333 38.3359 34 47 50c8.66699 16 13 34.333 13 55c0 24 -7 42.167 -21 54.5s-32 18.5 -54 18.5
c-23.333 0 -42 -7.83301 -56 -23.5s-21.667 -38.167 -23 -67.5z" />
    <glyph glyph-name="threequarters" unicode="&#xbe;" horiz-adv-x="721" 
d="M567 0v110h-186v36l176 282h60v-282h54v-36h-54v-110h-50zM425 146h142v214h-2zM120 -30l451 756h50l-451 -756h-50zM119 481l-0.00292969 44.001h18c26.667 0 47.834 6.33301 63.501 19c15.667 12.6689 23.5 29.3359 23.5 50c0 20 -6.33301 36.667 -19 50
s-29.667 20 -51 20c-20.667 0 -38.167 -6.66699 -52.5 -20s-21.833 -31.333 -22.5 -54h-54c0 36.667 10.833 65.5 32.5 86.5s53.834 31.5 96.501 31.5c38.667 0 69 -9.33301 91 -28s33 -44.334 33 -77.001c0 -24.667 -6.33301 -45.667 -19 -63s-31 -28.666 -55 -33.999v-2
c27.333 -3.33301 48.833 -14.333 64.5 -33c15.667 -18.668 23.5 -41.335 23.5 -68.001c0 -40 -11.667 -71.667 -35 -95s-57.666 -35 -102.999 -35c-86 0 -130.667 40.667 -134 122h54c0.666992 -20 8.16699 -38 22.5 -54s33.5 -24 57.5 -24c22 0 41.5 7.33301 58.5 22
s25.5 35.667 25.5 63c0 24.667 -8.33301 44 -25 58s-39 21 -67 21h-27z" />
    <glyph glyph-name="questiondown" unicode="&#xbf;" 
d="M198 357h59.999v-35c0 -36.667 -4.5 -65.667 -13.5 -87c-9 -21.334 -26.5 -45.667 -52.5 -73l-42 -45c-34.667 -37.333 -52 -79.666 -52 -126.999c0 -36 10.333 -65.667 31 -89s47.667 -35 81 -35c85.333 0 128 56 128 168h64c-0.666992 -65.333 -16.834 -118 -48.5 -158
c-31.667 -40 -78.167 -60 -139.5 -60c-55.333 0 -99.166 16 -131.499 48s-48.5 74.333 -48.5 127c0 58.667 21.667 111 65 157l43 46c20.667 22 35.167 42.667 43.5 62s12.5 43.666 12.5 72.999v28zM193.999 440v102h68v-102h-68z" />
    <glyph glyph-name="Agrave" unicode="&#xc0;" horiz-adv-x="500" 
d="M139 262h222l-110 402h-2zM-1 0l211 714h80l211 -714h-68l-58 208h-250l-58 -208h-68zM147 889h71l75 -141h-48z" />
    <glyph glyph-name="Aacute" unicode="&#xc1;" horiz-adv-x="500" 
d="M139 262h222l-110 402h-2zM-1 0l211 714h80l211 -714h-68l-58 208h-250l-58 -208h-68zM282 889h71l-98 -141h-48z" />
    <glyph glyph-name="Acircumflex" unicode="&#xc2;" horiz-adv-x="500" 
d="M139 262h222l-110 402h-2zM-1 0l211 714h80l211 -714h-68l-58 208h-250l-58 -208h-68zM184 748h-60l96 141h60l96 -141h-60l-66 100z" />
    <glyph glyph-name="Atilde" unicode="&#xc3;" horiz-adv-x="500" 
d="M139 262h222l-110 402h-2zM-1 0l211 714h80l211 -714h-68l-58 208h-250l-58 -208h-68zM340 869l44 0.000976562c-0.666992 -23.333 -8.16699 -45.5 -22.5 -66.5s-32.5 -31.5 -54.5 -31.5c-15.333 0 -31.666 5 -48.999 15l-38 21c-10.667 5.33301 -18.667 8 -24 8
c-8.66699 0 -16.334 -4.83301 -23.001 -14.5s-11 -20.834 -13 -33.501h-44c1.33301 23.333 9.33301 45.5 24 66.5s32 31.5 52 31.5c16.667 0 35.667 -6 57 -18l26 -15c12 -7.33301 22 -11 30 -11c10 0 18.5 5.5 25.5 16.5s10.167 21.5 9.5 31.5z" />
    <glyph glyph-name="Adieresis" unicode="&#xc4;" horiz-adv-x="500" 
d="M139 262h222l-110 402h-2zM-1 0l211 714h80l211 -714h-68l-58 208h-250l-58 -208h-68zM145 769v102h60v-102h-60zM295 769v102h60v-102h-60z" />
    <glyph glyph-name="Aring" unicode="&#xc5;" horiz-adv-x="500" 
d="M139 262h222l-110 402h-2zM-1 0l211 714h80l211 -714h-68l-58 208h-250l-58 -208h-68zM155 832c0 26 9.33301 48.333 28 67s41 28 67 28s48.333 -9.33301 67 -28s28 -41 28 -67s-9.33301 -48.333 -28 -67s-41 -28 -67 -28s-48.333 9.33301 -67 28s-28 41 -28 67zM191 832
c0 -16.667 5.66699 -30.667 17 -42s25.333 -17 42 -17s30.667 5.66699 42 17s17 25.333 17 42s-5.66699 30.667 -17 42s-25.333 17 -42 17s-30.667 -5.66699 -42 -17s-17 -25.333 -17 -42z" />
    <glyph glyph-name="AE" unicode="&#xc6;" horiz-adv-x="704" 
d="M332 0v208h-191l-81 -208h-68l290 714h395v-54h-281v-260h262v-54h-262v-292h290v-54h-354zM161 262h171v398h-10z" />
    <glyph glyph-name="Ccedilla" unicode="&#xc7;" horiz-adv-x="519" 
d="M218 -81l49.002 68.998c-144.667 7.33301 -217 130.333 -217 369c0 246 76 369 228 369c68.667 0 120 -20.833 154 -62.5s51 -94.167 51 -157.5h-64c0 50 -12.333 90.167 -37 120.5s-59.334 45.5 -104 45.5c-53.333 0 -94 -24.667 -122 -74s-42 -129.666 -42 -240.999
s14 -191.666 42 -240.999s68.667 -74 122 -74c44 0 78.833 17.667 104.5 53s40.167 84.333 43.5 147h64c-4 -75.333 -22 -134.833 -54 -178.5s-76 -68.167 -132 -73.5l-35 -46l2 -1c7.33398 3.33301 18.667 5 33.999 5c21.333 0 39.5 -6.5 54.5 -19.5
s22.5 -28.833 22.5 -47.5c0 -26 -11.167 -46.667 -33.5 -62s-46.5 -23 -72.5 -23c-32.667 0 -62.334 6.66699 -89.001 20l12 31c20 -10 40 -15 60 -15c22.667 0 39.834 4.16699 51.501 12.5s17.5 18.833 17.5 31.5c0 12 -5.16699 21 -15.5 27s-22.833 9 -37.5 9
c-18.667 0 -33.334 -3.33301 -44.001 -10z" />
    <glyph glyph-name="Egrave" unicode="&#xc8;" horiz-adv-x="444" 
d="M56 0v714h354v-54h-290v-260h271v-54h-271v-292h299v-54h-363zM137 889h71l75 -141h-48z" />
    <glyph glyph-name="Eacute" unicode="&#xc9;" horiz-adv-x="444" 
d="M56 0v714h354v-54h-290v-260h271v-54h-271v-292h299v-54h-363zM272 889h71l-98 -141h-48z" />
    <glyph glyph-name="Ecircumflex" unicode="&#xca;" horiz-adv-x="444" 
d="M56 0v714h354v-54h-290v-260h271v-54h-271v-292h299v-54h-363zM174 748h-60l96 141h60l96 -141h-60l-66 100z" />
    <glyph glyph-name="Edieresis" unicode="&#xcb;" horiz-adv-x="444" 
d="M56 0v714h354v-54h-290v-260h271v-54h-271v-292h299v-54h-363zM135 769v102h60v-102h-60zM285 769v102h60v-102h-60z" />
    <glyph glyph-name="Igrave" unicode="&#xcc;" horiz-adv-x="184" 
d="M60 0v714h64v-714h-64zM-11 889h71l75 -141h-48z" />
    <glyph glyph-name="Iacute" unicode="&#xcd;" horiz-adv-x="184" 
d="M60 0v714h64v-714h-64zM124 889h71l-98 -141h-48z" />
    <glyph glyph-name="Icircumflex" unicode="&#xce;" horiz-adv-x="184" 
d="M60 0v714h64v-714h-64zM26 748h-60l96 141h60l96 -141h-60l-66 100z" />
    <glyph glyph-name="Idieresis" unicode="&#xcf;" horiz-adv-x="184" 
d="M60 0v714h64v-714h-64zM-13 769v102h60v-102h-60zM137 769v102h60v-102h-60z" />
    <glyph glyph-name="Eth" unicode="&#xd0;" horiz-adv-x="537" 
d="M56 0v346h-56v54h56v314h172c99.333 0 167.333 -28.5 204 -85.5s55 -147.5 55 -271.5s-18.333 -214.5 -55 -271.5s-104.667 -85.5 -204 -85.5h-172zM120 400h160v-54h-160v-292h104c72 0 123.167 22 153.5 66s45.5 122.667 45.5 236c0 114.667 -15.167 194 -45.5 238
s-81.5 66 -153.5 66h-104v-260z" />
    <glyph glyph-name="Ntilde" unicode="&#xd1;" horiz-adv-x="537" 
d="M56 0v714h86l273 -622h2v622h64v-714h-86l-273 622h-2v-622h-64zM359 869l44.001 0.000976562c-0.666992 -23.333 -8.16699 -45.5 -22.5 -66.5s-32.5 -31.5 -54.5 -31.5c-16 0 -32.333 5 -49 15l-38 21c-10.667 5.33301 -18.667 8 -24 8
c-8.66699 0 -16.334 -4.83301 -23.001 -14.5s-11 -20.834 -13 -33.501h-44c1.33301 23.333 9.33301 45.5 24 66.5s32 31.5 52 31.5c16.667 0 35.667 -6 57 -18l26 -15c12 -7.33301 22 -11 30 -11c10 0 18.5 5.5 25.5 16.5s10.167 21.5 9.5 31.5z" />
    <glyph glyph-name="Ograve" unicode="&#xd2;" horiz-adv-x="556" 
d="M50 357c0 246 76 369 228 369s228 -123 228 -369s-76 -369 -228 -369s-228 123 -228 369zM114 357c0 -111.333 14 -191.666 42 -240.999s68.667 -74 122 -74s94 24.667 122 74s42 129.666 42 240.999s-14 191.666 -42 240.999s-68.667 74 -122 74s-94 -24.667 -122 -74
s-42 -129.666 -42 -240.999zM175 889h71l75 -141h-48z" />
    <glyph glyph-name="Oacute" unicode="&#xd3;" horiz-adv-x="556" 
d="M50 357c0 246 76 369 228 369s228 -123 228 -369s-76 -369 -228 -369s-228 123 -228 369zM114 357c0 -111.333 14 -191.666 42 -240.999s68.667 -74 122 -74s94 24.667 122 74s42 129.666 42 240.999s-14 191.666 -42 240.999s-68.667 74 -122 74s-94 -24.667 -122 -74
s-42 -129.666 -42 -240.999zM310 889h71l-98 -141h-48z" />
    <glyph glyph-name="Ocircumflex" unicode="&#xd4;" horiz-adv-x="556" 
d="M50 357c0 246 76 369 228 369s228 -123 228 -369s-76 -369 -228 -369s-228 123 -228 369zM114 357c0 -111.333 14 -191.666 42 -240.999s68.667 -74 122 -74s94 24.667 122 74s42 129.666 42 240.999s-14 191.666 -42 240.999s-68.667 74 -122 74s-94 -24.667 -122 -74
s-42 -129.666 -42 -240.999zM212 748h-60l96 141h60l96 -141h-60l-66 100z" />
    <glyph glyph-name="Otilde" unicode="&#xd5;" horiz-adv-x="556" 
d="M50 357c0 246 76 369 228 369s228 -123 228 -369s-76 -369 -228 -369s-228 123 -228 369zM114 357c0 -111.333 14 -191.666 42 -240.999s68.667 -74 122 -74s94 24.667 122 74s42 129.666 42 240.999s-14 191.666 -42 240.999s-68.667 74 -122 74s-94 -24.667 -122 -74
s-42 -129.666 -42 -240.999zM368 869l44 0.000976562c-0.666992 -23.333 -8.16699 -45.5 -22.5 -66.5s-32.5 -31.5 -54.5 -31.5c-15.333 0 -31.666 5 -48.999 15l-38 21c-10.667 5.33301 -18.667 8 -24 8c-8.66699 0 -16.334 -4.83301 -23.001 -14.5
s-11 -20.834 -13 -33.501h-44c1.33301 23.333 9.33301 45.5 24 66.5s32 31.5 52 31.5c16.667 0 35.667 -6 57 -18l26 -15c12 -7.33301 22 -11 30 -11c10 0 18.5 5.5 25.5 16.5s10.167 21.5 9.5 31.5z" />
    <glyph glyph-name="Odieresis" unicode="&#xd6;" horiz-adv-x="556" 
d="M50 357c0 246 76 369 228 369s228 -123 228 -369s-76 -369 -228 -369s-228 123 -228 369zM114 357c0 -111.333 14 -191.666 42 -240.999s68.667 -74 122 -74s94 24.667 122 74s42 129.666 42 240.999s-14 191.666 -42 240.999s-68.667 74 -122 74s-94 -24.667 -122 -74
s-42 -129.666 -42 -240.999zM173 769v102h60v-102h-60zM323 769v102h60v-102h-60z" />
    <glyph glyph-name="multiply" unicode="&#xd7;" horiz-adv-x="600" 
d="M490 28l-190 190l-190 -190l-36 35l191 190l-191 191l36 35l190 -190l190 190l36 -35l-191 -191l191 -190z" />
    <glyph glyph-name="Oslash" unicode="&#xd8;" horiz-adv-x="556" 
d="M155 119l219 514.999c-24.667 25.333 -56.667 38 -96 38c-53.333 0 -94 -24.667 -122 -74s-42 -129.666 -42 -240.999c0 -108 13.667 -187.333 41 -238zM401 594.999l-218 -514.998c23.333 -25.333 55 -38 95 -38c53.333 0 94 24.667 122 74s42 129.666 42 240.999
c0 107.333 -13.667 186.666 -41 237.999zM133 -41.999l-37 16l33 78c-52.667 58 -79 159.667 -79 305c0 246 76 369 228 369c47.334 0 86.667 -11.333 118 -34l27 64l37 -14l-33 -79c52.667 -58.667 79 -160.667 79 -306c0 -246 -76 -369 -228 -369
c-46 0 -85.333 11.333 -118 34z" />
    <glyph glyph-name="Ugrave" unicode="&#xd9;" horiz-adv-x="500" 
d="M46 200l-0.00195312 514h64v-513c0 -106 46.667 -159 140 -159s140 53 140 159v513h64v-514c0 -73.333 -17.167 -127 -51.5 -161s-85.166 -51 -152.499 -51s-118.166 17 -152.499 51s-51.5 87.667 -51.5 161zM146.998 889h71l75 -141h-48z" />
    <glyph glyph-name="Uacute" unicode="&#xda;" horiz-adv-x="500" 
d="M46 200l-0.00195312 514h64v-513c0 -106 46.667 -159 140 -159s140 53 140 159v513h64v-514c0 -73.333 -17.167 -127 -51.5 -161s-85.166 -51 -152.499 -51s-118.166 17 -152.499 51s-51.5 87.667 -51.5 161zM281.998 889h71l-98 -141h-48z" />
    <glyph glyph-name="Ucircumflex" unicode="&#xdb;" horiz-adv-x="500" 
d="M46 200l-0.00195312 514h64v-513c0 -106 46.667 -159 140 -159s140 53 140 159v513h64v-514c0 -73.333 -17.167 -127 -51.5 -161s-85.166 -51 -152.499 -51s-118.166 17 -152.499 51s-51.5 87.667 -51.5 161zM183.998 748h-60l96 141h60l96 -141h-60l-66 100z" />
    <glyph glyph-name="Udieresis" unicode="&#xdc;" horiz-adv-x="500" 
d="M46 200l-0.00195312 514h64v-513c0 -106 46.667 -159 140 -159s140 53 140 159v513h64v-514c0 -73.333 -17.167 -127 -51.5 -161s-85.166 -51 -152.499 -51s-118.166 17 -152.499 51s-51.5 87.667 -51.5 161zM144.998 769v102h60v-102h-60zM294.998 769v102h60v-102h-60z
" />
    <glyph glyph-name="Yacute" unicode="&#xdd;" horiz-adv-x="444" 
d="M190 0v286l-193 428h68l157 -356l157 356h68l-193 -428v-286h-64zM254 889h71l-98 -141h-48z" />
    <glyph glyph-name="Thorn" unicode="&#xde;" horiz-adv-x="480" 
d="M120 520v-296h109c46 0 82.833 11.667 110.5 35s41.5 61 41.5 113s-13.833 89.667 -41.5 113s-64.5 35 -110.5 35h-109zM56 0v714h64v-140h134c64 0 111.833 -18.167 143.5 -54.5s47.5 -85.5 47.5 -147.5c0 -60.667 -17.167 -109.5 -51.5 -146.5
s-89.833 -55.5 -166.5 -55.5h-107v-170h-64z" />
    <glyph glyph-name="germandbls" unicode="&#xdf;" horiz-adv-x="444" 
d="M52 0l-0.000976562 539c0 59.333 14.667 104.666 44 135.999s70.333 47 123 47c50 0 89.333 -14.5 118 -43.5s43 -69.5 43 -121.5c0 -34 -8.33301 -64.833 -25 -92.5s-43 -45.167 -79 -52.5v-2c27.334 -3.33301 50.667 -11.666 70 -24.999s33.5 -30 42.5 -50
s15.5 -39.5 19.5 -58.5s6 -39.167 6 -60.5c0 -69.333 -17.167 -123.666 -51.5 -162.999s-81.166 -59 -140.499 -59c-17.333 0 -31 2 -41 6v50c8 -4 19 -6 33 -6c40 0 72.667 14.833 98 44.5s38 73.5 38 131.5c0 106.667 -47.333 160 -142 160h-22v50h17
c35.333 0 63 10.5 83 31.5s30 51.833 30 92.499c0 35.333 -8.5 63.833 -25.5 85.5s-41.833 32.5 -74.5 32.5c-69.333 0 -104 -46.333 -104 -139v-533h-60z" />
    <glyph glyph-name="agrave" unicode="&#xe0;" 
d="M107 373l-60.001 0.000976562c0 113.333 54.667 170 164 170c100 0 150 -47 150 -141v-314c0 -29.333 10.333 -44 31 -44h17v-44c-11.333 -4 -20.666 -6 -27.999 -6c-26 0 -45.333 4.5 -58 13.5s-19 26.5 -19 52.5v18h-2c-20.667 -60 -66.334 -90 -137.001 -90
c-45.333 0 -79.166 13.167 -101.499 39.5s-33.5 63.166 -33.5 110.499c0 78 35.667 127 107 147l113 32c21.334 6 35.167 14 41.5 24s9.5 30 9.5 60c0 61.333 -30.667 92 -92 92c-68 0 -102 -40 -102 -120zM300.999 188.001l0.000976562 111.999h-2
c-4.66699 -14 -26 -25.667 -64 -35l-50 -13c-30.667 -8 -53.5 -20.667 -68.5 -38s-22.5 -41.333 -22.5 -72c0 -31.333 7.5 -56.5 22.5 -75.5s35.5 -28.5 61.5 -28.5c37.333 0 67.166 13.333 89.499 40s33.5 63.334 33.5 110.001zM110 738h71l75 -141h-48z" />
    <glyph glyph-name="aacute" unicode="&#xe1;" 
d="M107 373l-60.001 0.000976562c0 113.333 54.667 170 164 170c100 0 150 -47 150 -141v-314c0 -29.333 10.333 -44 31 -44h17v-44c-11.333 -4 -20.666 -6 -27.999 -6c-26 0 -45.333 4.5 -58 13.5s-19 26.5 -19 52.5v18h-2c-20.667 -60 -66.334 -90 -137.001 -90
c-45.333 0 -79.166 13.167 -101.499 39.5s-33.5 63.166 -33.5 110.499c0 78 35.667 127 107 147l113 32c21.334 6 35.167 14 41.5 24s9.5 30 9.5 60c0 61.333 -30.667 92 -92 92c-68 0 -102 -40 -102 -120zM300.999 188.001l0.000976562 111.999h-2
c-4.66699 -14 -26 -25.667 -64 -35l-50 -13c-30.667 -8 -53.5 -20.667 -68.5 -38s-22.5 -41.333 -22.5 -72c0 -31.333 7.5 -56.5 22.5 -75.5s35.5 -28.5 61.5 -28.5c37.333 0 67.166 13.333 89.499 40s33.5 63.334 33.5 110.001zM245 738h71l-98 -141h-48z" />
    <glyph glyph-name="acircumflex" unicode="&#xe2;" 
d="M107 373l-60.001 0.000976562c0 113.333 54.667 170 164 170c100 0 150 -47 150 -141v-314c0 -29.333 10.333 -44 31 -44h17v-44c-11.333 -4 -20.666 -6 -27.999 -6c-26 0 -45.333 4.5 -58 13.5s-19 26.5 -19 52.5v18h-2c-20.667 -60 -66.334 -90 -137.001 -90
c-45.333 0 -79.166 13.167 -101.499 39.5s-33.5 63.166 -33.5 110.499c0 78 35.667 127 107 147l113 32c21.334 6 35.167 14 41.5 24s9.5 30 9.5 60c0 61.333 -30.667 92 -92 92c-68 0 -102 -40 -102 -120zM300.999 188.001l0.000976562 111.999h-2
c-4.66699 -14 -26 -25.667 -64 -35l-50 -13c-30.667 -8 -53.5 -20.667 -68.5 -38s-22.5 -41.333 -22.5 -72c0 -31.333 7.5 -56.5 22.5 -75.5s35.5 -28.5 61.5 -28.5c37.333 0 67.166 13.333 89.499 40s33.5 63.334 33.5 110.001zM147 597h-60l96 141h60l96 -141h-60l-66 100
z" />
    <glyph glyph-name="atilde" unicode="&#xe3;" 
d="M107 373l-60.001 0.000976562c0 113.333 54.667 170 164 170c100 0 150 -47 150 -141v-314c0 -29.333 10.333 -44 31 -44h17v-44c-11.333 -4 -20.666 -6 -27.999 -6c-26 0 -45.333 4.5 -58 13.5s-19 26.5 -19 52.5v18h-2c-20.667 -60 -66.334 -90 -137.001 -90
c-45.333 0 -79.166 13.167 -101.499 39.5s-33.5 63.166 -33.5 110.499c0 78 35.667 127 107 147l113 32c21.334 6 35.167 14 41.5 24s9.5 30 9.5 60c0 61.333 -30.667 92 -92 92c-68 0 -102 -40 -102 -120zM300.999 188.001l0.000976562 111.999h-2
c-4.66699 -14 -26 -25.667 -64 -35l-50 -13c-30.667 -8 -53.5 -20.667 -68.5 -38s-22.5 -41.333 -22.5 -72c0 -31.333 7.5 -56.5 22.5 -75.5s35.5 -28.5 61.5 -28.5c37.333 0 67.166 13.333 89.499 40s33.5 63.334 33.5 110.001zM303 718l44.001 0.000976562
c-0.666992 -23.333 -8.16699 -45.5 -22.5 -66.5s-32.5 -31.5 -54.5 -31.5c-16 0 -32.333 5 -49 15l-38 21c-10.667 5.33301 -18.667 8 -24 8c-8.66699 0 -16.334 -4.83301 -23.001 -14.5s-11 -20.834 -13 -33.501h-44c1.33301 23.333 9.33301 45.5 24 66.5s32 31.5 52 31.5
c16.667 0 35.667 -6 57 -18l26 -15c12 -7.33301 22 -11 30 -11c10 0 18.5 5.5 25.5 16.5s10.167 21.5 9.5 31.5z" />
    <glyph glyph-name="adieresis" unicode="&#xe4;" 
d="M107 373l-60.001 0.000976562c0 113.333 54.667 170 164 170c100 0 150 -47 150 -141v-314c0 -29.333 10.333 -44 31 -44h17v-44c-11.333 -4 -20.666 -6 -27.999 -6c-26 0 -45.333 4.5 -58 13.5s-19 26.5 -19 52.5v18h-2c-20.667 -60 -66.334 -90 -137.001 -90
c-45.333 0 -79.166 13.167 -101.499 39.5s-33.5 63.166 -33.5 110.499c0 78 35.667 127 107 147l113 32c21.334 6 35.167 14 41.5 24s9.5 30 9.5 60c0 61.333 -30.667 92 -92 92c-68 0 -102 -40 -102 -120zM300.999 188.001l0.000976562 111.999h-2
c-4.66699 -14 -26 -25.667 -64 -35l-50 -13c-30.667 -8 -53.5 -20.667 -68.5 -38s-22.5 -41.333 -22.5 -72c0 -31.333 7.5 -56.5 22.5 -75.5s35.5 -28.5 61.5 -28.5c37.333 0 67.166 13.333 89.499 40s33.5 63.334 33.5 110.001zM108 618v102h60v-102h-60zM258 618v102h60
v-102h-60z" />
    <glyph glyph-name="aring" unicode="&#xe5;" 
d="M107 373l-60.001 0.000976562c0 113.333 54.667 170 164 170c100 0 150 -47 150 -141v-314c0 -29.333 10.333 -44 31 -44h17v-44c-11.333 -4 -20.666 -6 -27.999 -6c-26 0 -45.333 4.5 -58 13.5s-19 26.5 -19 52.5v18h-2c-20.667 -60 -66.334 -90 -137.001 -90
c-45.333 0 -79.166 13.167 -101.499 39.5s-33.5 63.166 -33.5 110.499c0 78 35.667 127 107 147l113 32c21.334 6 35.167 14 41.5 24s9.5 30 9.5 60c0 61.333 -30.667 92 -92 92c-68 0 -102 -40 -102 -120zM300.999 188.001l0.000976562 111.999h-2
c-4.66699 -14 -26 -25.667 -64 -35l-50 -13c-30.667 -8 -53.5 -20.667 -68.5 -38s-22.5 -41.333 -22.5 -72c0 -31.333 7.5 -56.5 22.5 -75.5s35.5 -28.5 61.5 -28.5c37.333 0 67.166 13.333 89.499 40s33.5 63.334 33.5 110.001zM118 681c0 26 9.33301 48.333 28 67
s41 28 67 28s48.333 -9.33301 67 -28s28 -41 28 -67s-9.33301 -48.333 -28 -67s-41 -28 -67 -28s-48.333 9.33301 -67 28s-28 41 -28 67zM154 681c0 -16.667 5.66699 -30.667 17 -42s25.333 -17 42 -17s30.667 5.66699 42 17s17 25.333 17 42s-5.66699 30.667 -17 42
s-25.333 17 -42 17s-30.667 -5.66699 -42 -17s-17 -25.333 -17 -42z" />
    <glyph glyph-name="ae" unicode="&#xe6;" horiz-adv-x="648" 
d="M107 373l-60.0029 0.000976562c0 55.333 13.167 97.5 39.5 126.5s65.5 43.5 117.5 43.5c32 0 59.333 -7.16699 82 -21.5s37.334 -35.833 44.001 -64.5h2c8.66699 27.333 24.5 48.5 47.5 63.5s48.5 22.5 76.5 22.5c58.668 0 100.335 -22.333 125.001 -67
c24.667 -44.667 37 -115.667 37 -213h-274v-29c0 -64.667 9.5 -113.5 28.5 -146.5s44.167 -49.5 75.5 -49.5c29.333 0 54 13 74 39s30.333 59 31 99h60c-3.33301 -60 -19.333 -106.333 -48 -139s-67 -49 -115 -49c-68 0 -113.667 36.667 -137 110h-2
c-20 -73.333 -68.667 -110 -146 -110c-45.333 0 -79.166 13.167 -101.499 39.5s-33.5 63.166 -33.5 110.499c0 44 9.83301 77.167 29.5 99.5s53.5 39.833 101.5 52.5l72 19c20 6 33.5 14 40.5 24s10.5 28 10.5 54c0 38 -6.33301 65.167 -19 81.5s-33.667 24.5 -63 24.5
c-63.333 0 -95 -40 -95 -120zM236.997 264.001l-62 -17c-30 -8 -51 -20.167 -63 -36.5c-12 -16.334 -18 -39.167 -18 -68.5c0 -31.333 7.5 -56.5 22.5 -75.5s35.5 -28.5 61.5 -28.5c27.333 0 51.833 11.5 73.5 34.5s32.5 57.167 32.5 102.5v111h-2
c-6 -8.66699 -21 -16 -45 -22zM343.997 313.001h210c-0.666992 120 -35.667 180 -105 180c-68 0 -103 -60 -105 -180z" />
    <glyph glyph-name="ccedilla" unicode="&#xe7;" horiz-adv-x="407" 
d="M153 -81l49.0039 69.002c-114.667 3.33301 -172 96 -172 278c0 91.333 15.667 160.333 47 207s76.666 70 135.999 70c50 0 89 -14.667 117 -44s43.667 -71.333 47 -126h-60c-3.33301 41.334 -13.5 71.667 -30.5 91s-41.5 29 -73.5 29c-37.333 0 -66.5 -16.333 -87.5 -49
s-31.5 -92.334 -31.5 -179c0 -38.667 2.16699 -72.167 6.5 -100.5s10 -50.333 17 -66s15.667 -28.334 26 -38.001s20.333 -15.834 30 -18.501s20.834 -4 33.5 -4c63.333 0 100 46 110 138h60c-4 -50.667 -18 -92.5 -42 -125.5s-55.667 -53.167 -95 -60.5l-36 -46l2 -1
c7.33301 3.33301 18.666 5 33.999 5c21.333 0 39.5 -6.5 54.5 -19.5s22.5 -28.833 22.5 -47.5c0 -26 -11.167 -46.667 -33.5 -62s-46.5 -23 -72.5 -23c-32.667 0 -62.334 6.66699 -89.001 20l12 31c20 -10 40 -15 60 -15c22.667 0 39.834 4.16699 51.5 12.5
c11.667 8.33301 17.5 18.833 17.5 31.5c0 12 -5.16699 21 -15.5 27s-22.833 9 -37.5 9c-18.667 0 -33.334 -3.33301 -44.001 -10z" />
    <glyph glyph-name="egrave" unicode="&#xe8;" 
d="M325 176h60c-4.66699 -57.333 -22 -103 -52 -137s-69.667 -51 -119 -51c-118.667 0 -178 92.667 -178 278c0 91.333 15.667 160.333 47 207s76.666 70 135.999 70c58.667 0 101.834 -20.833 129.501 -62.5s41.5 -106.834 41.5 -195.5v-22h-290v-25
c0 -71.333 10.5 -122.5 31.5 -153.5s48.167 -46.5 81.5 -46.5c64.667 0 102 46 112 138zM100 313l226 -0.000976562c-0.666992 64.667 -10.167 110.834 -28.5 138.501s-46.5 41.5 -84.5 41.5s-66.167 -13.833 -84.5 -41.5s-27.833 -73.834 -28.5 -138.5zM115 737.999h71
l75 -141h-48z" />
    <glyph glyph-name="eacute" unicode="&#xe9;" 
d="M325 176h60c-4.66699 -57.333 -22 -103 -52 -137s-69.667 -51 -119 -51c-118.667 0 -178 92.667 -178 278c0 91.333 15.667 160.333 47 207s76.666 70 135.999 70c58.667 0 101.834 -20.833 129.501 -62.5s41.5 -106.834 41.5 -195.5v-22h-290v-25
c0 -71.333 10.5 -122.5 31.5 -153.5s48.167 -46.5 81.5 -46.5c64.667 0 102 46 112 138zM100 313l226 -0.000976562c-0.666992 64.667 -10.167 110.834 -28.5 138.501s-46.5 41.5 -84.5 41.5s-66.167 -13.833 -84.5 -41.5s-27.833 -73.834 -28.5 -138.5zM250 737.999h71
l-98 -141h-48z" />
    <glyph glyph-name="ecircumflex" unicode="&#xea;" 
d="M325 176h60c-4.66699 -57.333 -22 -103 -52 -137s-69.667 -51 -119 -51c-118.667 0 -178 92.667 -178 278c0 91.333 15.667 160.333 47 207s76.666 70 135.999 70c58.667 0 101.834 -20.833 129.501 -62.5s41.5 -106.834 41.5 -195.5v-22h-290v-25
c0 -71.333 10.5 -122.5 31.5 -153.5s48.167 -46.5 81.5 -46.5c64.667 0 102 46 112 138zM100 313l226 -0.000976562c-0.666992 64.667 -10.167 110.834 -28.5 138.501s-46.5 41.5 -84.5 41.5s-66.167 -13.833 -84.5 -41.5s-27.833 -73.834 -28.5 -138.5zM152 596.999h-60
l96 141h60l96 -141h-60l-66 100z" />
    <glyph glyph-name="edieresis" unicode="&#xeb;" 
d="M325 176h60c-4.66699 -57.333 -22 -103 -52 -137s-69.667 -51 -119 -51c-118.667 0 -178 92.667 -178 278c0 91.333 15.667 160.333 47 207s76.666 70 135.999 70c58.667 0 101.834 -20.833 129.501 -62.5s41.5 -106.834 41.5 -195.5v-22h-290v-25
c0 -71.333 10.5 -122.5 31.5 -153.5s48.167 -46.5 81.5 -46.5c64.667 0 102 46 112 138zM100 313l226 -0.000976562c-0.666992 64.667 -10.167 110.834 -28.5 138.501s-46.5 41.5 -84.5 41.5s-66.167 -13.833 -84.5 -41.5s-27.833 -73.834 -28.5 -138.5zM113 617.999v102h60
v-102h-60zM263 617.999v102h60v-102h-60z" />
    <glyph glyph-name="igrave" unicode="&#xec;" horiz-adv-x="184" 
d="M62 0v531h60v-531h-60zM-11 738h71l75 -141h-48z" />
    <glyph glyph-name="iacute" unicode="&#xed;" horiz-adv-x="184" 
d="M62 0v531h60v-531h-60zM124 738h71l-98 -141h-48z" />
    <glyph glyph-name="icircumflex" unicode="&#xee;" horiz-adv-x="184" 
d="M62 0v531h60v-531h-60zM26 597h-60l96 141h60l96 -141h-60l-66 100z" />
    <glyph glyph-name="idieresis" unicode="&#xef;" horiz-adv-x="184" 
d="M62 0v531h60v-531h-60zM-13 618v102h60v-102h-60zM137 618v102h60v-102h-60z" />
    <glyph glyph-name="eth" unicode="&#xf0;" 
d="M94 260c0 -148 39.667 -222 119 -222s119 74 119 222c0 77.333 -10.833 133.5 -32.5 168.5s-50.5 52.5 -86.5 52.5s-64.833 -17.5 -86.5 -52.5s-32.5 -91.167 -32.5 -168.5zM118 598l-38.001 32l74 44c-16.667 18.667 -41 41.334 -73 68l47 32
c30 -25.333 55.333 -49.333 76 -72l72 42l36 -30l-75 -45c106 -115.334 159 -249.667 159 -403c0 -91.333 -15.667 -160.5 -47 -207.5s-76.666 -70.5 -135.999 -70.5c-58.667 0 -103.834 23.167 -135.501 69.5s-47.5 113.833 -47.5 202.5c0 86.667 15.667 153.5 47 200.5
s73 70.5 125 70.5c40.667 0 73.334 -17.667 98.001 -53l2 2c-34.667 59.333 -73 112.333 -115 159z" />
    <glyph glyph-name="ntilde" unicode="&#xf1;" horiz-adv-x="444" 
d="M58 0l0.000976562 531h54v-74h2c29.333 57.333 74.666 86 135.999 86c42.667 0 76 -11.667 100 -35s36 -59 36 -107v-401h-60v384c0 72.667 -30.333 109 -91 109c-35.334 0 -63.667 -12.5 -85 -37.5s-32 -57.833 -32 -98.5v-357h-60zM312.001 718l44 0.000976562
c-0.666992 -23.333 -8.16699 -45.5 -22.5 -66.5s-32.5 -31.5 -54.5 -31.5c-15.333 0 -31.666 5 -48.999 15l-38 21c-10.667 5.33301 -18.667 8 -24 8c-8.66699 0 -16.334 -4.83301 -23.001 -14.5s-11 -20.834 -13 -33.501h-44c1.33301 23.333 9.33301 45.5 24 66.5
s32 31.5 52 31.5c16.667 0 35.667 -6 57 -18l26 -15c12 -7.33301 22 -11 30 -11c10 0 18.5 5.5 25.5 16.5s10.167 21.5 9.5 31.5z" />
    <glyph glyph-name="ograve" unicode="&#xf2;" 
d="M30 266c0 91.333 15.666 160.333 46.999 207s76.666 70 135.999 70c59.334 0 104.667 -23.333 136 -70s47 -115.667 47 -207s-15.667 -160.5 -47 -207.5s-76.666 -70.5 -135.999 -70.5s-104.666 23.5 -135.999 70.5s-47 116.167 -47 207.5zM93.999 266
c0 -152 39.667 -228 119 -228s119 76 119 228c0 151.333 -39.667 227 -119 227s-119 -75.667 -119 -227zM109.999 738h71l75 -141h-48z" />
    <glyph glyph-name="oacute" unicode="&#xf3;" 
d="M30 266c0 91.333 15.666 160.333 46.999 207s76.666 70 135.999 70c59.334 0 104.667 -23.333 136 -70s47 -115.667 47 -207s-15.667 -160.5 -47 -207.5s-76.666 -70.5 -135.999 -70.5s-104.666 23.5 -135.999 70.5s-47 116.167 -47 207.5zM93.999 266
c0 -152 39.667 -228 119 -228s119 76 119 228c0 151.333 -39.667 227 -119 227s-119 -75.667 -119 -227zM244.999 738h71l-98 -141h-48z" />
    <glyph glyph-name="ocircumflex" unicode="&#xf4;" 
d="M30 266c0 91.333 15.666 160.333 46.999 207s76.666 70 135.999 70c59.334 0 104.667 -23.333 136 -70s47 -115.667 47 -207s-15.667 -160.5 -47 -207.5s-76.666 -70.5 -135.999 -70.5s-104.666 23.5 -135.999 70.5s-47 116.167 -47 207.5zM93.999 266
c0 -152 39.667 -228 119 -228s119 76 119 228c0 151.333 -39.667 227 -119 227s-119 -75.667 -119 -227zM146.999 597h-60l96 141h60l96 -141h-60l-66 100z" />
    <glyph glyph-name="otilde" unicode="&#xf5;" 
d="M30 266c0 91.333 15.666 160.333 46.999 207s76.666 70 135.999 70c59.334 0 104.667 -23.333 136 -70s47 -115.667 47 -207s-15.667 -160.5 -47 -207.5s-76.666 -70.5 -135.999 -70.5s-104.666 23.5 -135.999 70.5s-47 116.167 -47 207.5zM93.999 266
c0 -152 39.667 -228 119 -228s119 76 119 228c0 151.333 -39.667 227 -119 227s-119 -75.667 -119 -227zM302.999 718l44.001 0.000976562c-0.666992 -23.333 -8.16699 -45.5 -22.5 -66.5s-32.5 -31.5 -54.5 -31.5c-16 0 -32.333 5 -49 15l-38 21
c-10.667 5.33301 -18.667 8 -24 8c-8.66699 0 -16.334 -4.83301 -23.001 -14.5s-11 -20.834 -13 -33.501h-44c1.33301 23.333 9.33301 45.5 24 66.5s32 31.5 52 31.5c16.667 0 35.667 -6 57 -18l26 -15c12 -7.33301 22 -11 30 -11c10 0 18.5 5.5 25.5 16.5
s10.167 21.5 9.5 31.5z" />
    <glyph glyph-name="odieresis" unicode="&#xf6;" 
d="M30 266c0 91.333 15.666 160.333 46.999 207s76.666 70 135.999 70c59.334 0 104.667 -23.333 136 -70s47 -115.667 47 -207s-15.667 -160.5 -47 -207.5s-76.666 -70.5 -135.999 -70.5s-104.666 23.5 -135.999 70.5s-47 116.167 -47 207.5zM93.999 266
c0 -152 39.667 -228 119 -228s119 76 119 228c0 151.333 -39.667 227 -119 227s-119 -75.667 -119 -227zM107.999 618v102h60v-102h-60zM257.999 618v102h60v-102h-60z" />
    <glyph glyph-name="divide" unicode="&#xf7;" horiz-adv-x="600" 
d="M47 228v50h506v-50h-506zM245 459c0 15.333 5.5 28.333 16.5 39s23.833 16 38.5 16s27.5 -5.33301 38.5 -16s16.5 -23.667 16.5 -39s-5.5 -28.333 -16.5 -39s-23.833 -16 -38.5 -16s-27.5 5.33301 -38.5 16s-16.5 23.667 -16.5 39zM245 47c0 15.333 5.5 28.333 16.5 39
s23.833 16 38.5 16s27.5 -5.33301 38.5 -16s16.5 -23.667 16.5 -39s-5.5 -28.333 -16.5 -39s-23.833 -16 -38.5 -16s-27.5 5.33301 -38.5 16s-16.5 23.667 -16.5 39z" />
    <glyph glyph-name="oslash" unicode="&#xf8;" 
d="M122 101l154 368c-16.667 16 -37.667 24 -63 24c-79.333 0 -119 -75.667 -119 -227c0 -72.667 9.33301 -127.667 28 -165zM304 430l-154 -367c16.667 -16.667 37.667 -25 63 -25c79.333 0 119 76 119 228c0 73.333 -9.33301 128 -28 164zM100 -55l-36.999 14.999l32 76
c-43.333 45.333 -65 122 -65 230c0 91.333 15.667 160.333 47 207s76.666 70 135.999 70c33.333 0 61.666 -7.33301 84.999 -22l27 65l38 -16l-32 -75c43.333 -45.333 65 -121.666 65 -228.999c0 -91.333 -15.667 -160.5 -47 -207.5s-76.666 -70.5 -135.999 -70.5
c-34 0 -62.333 7.66699 -85 23z" />
    <glyph glyph-name="ugrave" unicode="&#xf9;" horiz-adv-x="444" 
d="M58 130l-0.000976562 401h60v-374c0 -42.667 7.33301 -73.167 22 -91.5s38 -27.5 70 -27.5c34 0 61.833 12.5 83.5 37.5s32.5 57.833 32.5 98.5v357h60v-531h-54v74h-2c-29.333 -57.333 -74.666 -86 -135.999 -86c-42.667 0 -76 11.667 -100 35s-36 59 -36 107z
M118.999 738h71l75 -141h-48z" />
    <glyph glyph-name="uacute" unicode="&#xfa;" horiz-adv-x="444" 
d="M58 130l-0.000976562 401h60v-374c0 -42.667 7.33301 -73.167 22 -91.5s38 -27.5 70 -27.5c34 0 61.833 12.5 83.5 37.5s32.5 57.833 32.5 98.5v357h60v-531h-54v74h-2c-29.333 -57.333 -74.666 -86 -135.999 -86c-42.667 0 -76 11.667 -100 35s-36 59 -36 107z
M253.999 738h71l-98 -141h-48z" />
    <glyph glyph-name="ucircumflex" unicode="&#xfb;" horiz-adv-x="444" 
d="M58 130l-0.000976562 401h60v-374c0 -42.667 7.33301 -73.167 22 -91.5s38 -27.5 70 -27.5c34 0 61.833 12.5 83.5 37.5s32.5 57.833 32.5 98.5v357h60v-531h-54v74h-2c-29.333 -57.333 -74.666 -86 -135.999 -86c-42.667 0 -76 11.667 -100 35s-36 59 -36 107z
M155.999 597h-60l96 141h60l96 -141h-60l-66 100z" />
    <glyph glyph-name="udieresis" unicode="&#xfc;" horiz-adv-x="444" 
d="M58 130l-0.000976562 401h60v-374c0 -42.667 7.33301 -73.167 22 -91.5s38 -27.5 70 -27.5c34 0 61.833 12.5 83.5 37.5s32.5 57.833 32.5 98.5v357h60v-531h-54v74h-2c-29.333 -57.333 -74.666 -86 -135.999 -86c-42.667 0 -76 11.667 -100 35s-36 59 -36 107z
M116.999 618v102h60v-102h-60zM266.999 618v102h60v-102h-60z" />
    <glyph glyph-name="yacute" unicode="&#xfd;" horiz-adv-x="370" 
d="M160 -5l-152.999 536h64l119 -460h2l107 460h64l-155 -574c-14 -52 -30.833 -87.167 -50.5 -105.5s-49.834 -27.5 -90.501 -27.5c-10.667 0 -24 0.666992 -40 2v50c17.333 -1.33301 30.333 -2 39 -2c19.333 0 35.333 5.16699 48 15.5s23 28.833 31 55.5zM217.001 738h71
l-98 -141h-48z" />
    <glyph glyph-name="thorn" unicode="&#xfe;" horiz-adv-x="444" 
d="M52 -176l0.00195312 890h60v-271h2c8 30 23.5 54.167 46.5 72.5s48.833 27.5 77.5 27.5c113.333 0 170 -92.667 170 -278c0 -184.667 -56.667 -277 -170 -277c-32.667 0 -59.834 8.16699 -81.501 24.5s-35.834 38.833 -42.501 67.5h-2v-256h-60zM112.002 265
c0 -47.333 2.99902 -86.668 8.99902 -118.001s14.833 -54.5 26.5 -69.5s23.667 -25.333 36 -31s27.166 -8.5 44.499 -8.5c16.667 0 31.334 2.83301 44.001 8.5s24.834 16 36.501 31s20.5 38.333 26.5 70s9 70.834 9 117.501c0 47.333 -3 86.833 -9 118.5s-15 55 -27 70
s-24.167 25.333 -36.5 31s-26.833 8.5 -43.5 8.5c-17.334 0 -32.167 -2.83301 -44.5 -8.5s-24.333 -16 -36 -31s-20.5 -38.333 -26.5 -70s-9 -71.167 -9 -118.5z" />
    <glyph glyph-name="ydieresis" unicode="&#xff;" horiz-adv-x="370" 
d="M160 -5l-152.999 536h64l119 -460h2l107 460h64l-155 -574c-14 -52 -30.833 -87.167 -50.5 -105.5s-49.834 -27.5 -90.501 -27.5c-10.667 0 -24 0.666992 -40 2v50c17.333 -1.33301 30.333 -2 39 -2c19.333 0 35.333 5.16699 48 15.5s23 28.833 31 55.5zM80.001 618v102
h60v-102h-60zM230.001 618v102h60v-102h-60z" />
    <glyph glyph-name="dotlessi" unicode="&#x131;" horiz-adv-x="184" 
d="M62 0v531h60v-531h-60z" />
    <glyph glyph-name="Lslash" unicode="&#x141;" 
d="M56 0v286l-70 -48v60l70 48v368h64v-324l186 127v-60l-186 -127v-276h296v-54h-360z" />
    <glyph glyph-name="lslash" unicode="&#x142;" horiz-adv-x="184" 
d="M62 0v316l-62 -66v60l62 66v338h60v-274l62 66v-60l-62 -66v-380h-60z" />
    <glyph glyph-name="OE" unicode="&#x152;" horiz-adv-x="778" 
d="M410 237v253.998c0 68 -10.833 115.167 -32.5 141.5s-57.5 39.5 -107.5 39.5c-53.333 0 -94 -24.667 -122 -74s-42 -129.666 -42 -240.999s14 -191.666 42 -240.999s68.667 -74 122 -74c49.333 0 85 15 107 45s33 80 33 150zM410 655.998v58h339v-54h-275v-260h256v-54
h-256v-292h284v-54h-348v64h-2c-20.667 -50.667 -66.667 -76 -138 -76c-152 0 -228 123 -228 369s76 369 228 369c66.667 0 112.667 -23.333 138 -70h2z" />
    <glyph glyph-name="oe" unicode="&#x153;" horiz-adv-x="704" 
d="M601 176h59.999c-3.33301 -60 -19.333 -106.333 -48 -139s-67 -49 -115 -49c-66.667 0 -112.667 36.667 -138 110h-2c-10 -35.333 -26.833 -62.5 -50.5 -81.5s-52.5 -28.5 -86.5 -28.5c-59.333 0 -104.666 23.5 -135.999 70.5s-47 116.167 -47 207.5
s15.667 160.333 47 207s76.666 70 135.999 70c35.333 0 65.5 -9.33301 90.5 -28s42.5 -46.334 52.5 -83h2c19.333 74 65.333 111 138 111c58.668 0 100.335 -22.333 125.001 -67c24.667 -44.667 37 -115.667 37 -213h-274v-29c0 -64.667 9.5 -113.5 28.5 -146.5
s44.167 -49.5 75.5 -49.5c29.333 0 54 13 74 39s30.333 59 31 99zM101.999 266c0 -80 10.5 -138 31.5 -174s48.833 -54 83.5 -54s62.5 18 83.5 54s31.5 94 31.5 174c0 79.333 -10.5 137 -31.5 173s-48.833 54 -83.5 54s-62.5 -18 -83.5 -54s-31.5 -93.667 -31.5 -173z
M391.999 313h210c-0.666992 120 -35.667 180 -105 180c-68 0 -103 -60 -105 -180z" />
    <glyph glyph-name="Scaron" unicode="&#x160;" horiz-adv-x="480" 
d="M433 531l-63.998 -0.00292969c0 44.668 -10.667 79.335 -32 104c-21.333 24.667 -53.333 37 -96 37c-42 0 -75 -12.167 -99 -36.5s-36 -54.833 -36 -91.5c0 -25.334 5 -47.334 15 -66c10 -18.667 23 -33 39 -43s34.5 -19.5 55.5 -28.5s42.167 -16.333 63.5 -22
s42.5 -13.5 63.5 -23.5s39.5 -21.167 55.5 -33.5s29 -29.666 39 -51.999s15 -48.5 15 -78.5c0 -67.333 -19.333 -119 -58 -155s-91.334 -54 -158.001 -54c-67.333 0 -118.833 18 -154.5 54s-53.5 88.667 -53.5 158v21h64v-27c0 -46.667 12.167 -83.667 36.5 -111
s59.5 -41 105.5 -41c47.333 0 84.833 12.167 112.5 36.5s41.5 60.5 41.5 108.5c0 28.667 -6.33301 52.834 -19 72.501s-29.167 34.667 -49.5 45s-42.833 19.5 -67.5 27.5s-49.334 16.5 -74.001 25.5s-47.167 20.167 -67.5 33.5s-36.833 32.333 -49.5 57
s-19 54.334 -19 89.001c0 56.668 17.5 102.335 52.5 137c35 34.667 83.167 52 144.5 52c129.333 0 194 -65 194 -195zM113.002 888.997h60l67 -101l67 101h60l-98 -141h-60z" />
    <glyph glyph-name="scaron" unicode="&#x161;" horiz-adv-x="389" 
d="M226 231l-84 32.999c-68 26 -102 68 -102 126c0 52 14.333 90.5 43 115.5s67 37.5 115 37.5c97.333 0 146 -49.333 146 -148v-15h-60v15c0 65.333 -29 98 -87 98c-64.667 0 -97 -30 -97 -90c0 -20.667 5 -38 15 -52s29 -26.333 57 -37l87 -33
c66 -24.667 99 -69.667 99 -135c0 -47.333 -13.833 -85.5 -41.5 -114.5s-68.5 -43.5 -122.5 -43.5c-56 0 -97.167 12.833 -123.5 38.5s-39.5 67.834 -39.5 126.501v17h60v-14c0 -78.667 34 -118 102 -118c32 0 57.5 8.5 76.5 25.5s28.5 40.167 28.5 69.5
c0 24 -5.5 43.833 -16.5 59.5s-29.5 28.5 -55.5 38.5zM68 737.999h60l67 -101l67 101h60l-98 -141h-60z" />
    <glyph glyph-name="Ydieresis" unicode="&#x178;" horiz-adv-x="444" 
d="M190 0v286l-193 428h68l157 -356l157 356h68l-193 -428v-286h-64zM117 769v102h60v-102h-60zM267 769v102h60v-102h-60z" />
    <glyph glyph-name="Zcaron" unicode="&#x17d;" horiz-adv-x="462" 
d="M22 0v60l348 600h-328v54h393v-60l-342 -600h347v-54h-418zM104 889h60l67 -101l67 101h60l-98 -141h-60z" />
    <glyph glyph-name="zcaron" unicode="&#x17e;" horiz-adv-x="352" 
d="M18 0v50l252 431h-239v50h303v-50l-252 -431h252v-50h-316zM49 738h60l67 -101l67 101h60l-98 -141h-60z" />
    <glyph glyph-name="florin" unicode="&#x192;" horiz-adv-x="480" 
d="M112 397l7.99902 44h105l26 130c18.667 95.333 72 143 160 143c8.66699 0 24.334 -1.33301 47.001 -4l-11 -50c-12 2.66699 -21 4 -27 4c-34 0 -59.833 -9 -77.5 -27s-32.167 -58.333 -43.5 -121l-14 -75h112l-8 -44h-112l-73 -382c-14 -71.333 -32.667 -121 -56 -149
s-59.333 -42 -108 -42c-23.333 0 -41 2.33301 -53 7l11 50c10.667 -4.66699 21.667 -7 33 -7c34 0 58.5 9.5 73.5 28.5s29.167 63.5 42.5 133.5l70 361h-105z" />
    <glyph glyph-name="circumflex" unicode="&#x2c6;" horiz-adv-x="186" 
d="M27 597h-60l96 141h60l96 -141h-60l-66 100z" />
    <glyph glyph-name="caron" unicode="&#x2c7;" horiz-adv-x="186" 
d="M-34 738h60l67 -101l67 101h60l-98 -141h-60z" />
    <glyph glyph-name="uni02C9" unicode="&#x2c9;" horiz-adv-x="186" 
d="M-26 646v44h238v-44h-238z" />
    <glyph glyph-name="breve" unicode="&#x2d8;" horiz-adv-x="186" 
d="M-28 726h43.999c2.66699 -22.667 11.334 -42 26.001 -58c13.333 -13.333 30.333 -20 51 -20s38 6.83301 52 20.5c14 13.6689 22.333 32.8359 25 57.5h44c-2.66699 -37.333 -15 -67 -37 -89s-50 -33 -84 -33s-62 11 -84 33s-34.333 51.667 -37 89z" />
    <glyph glyph-name="dotaccent" unicode="&#x2d9;" horiz-adv-x="186" 
d="M63 618v102h60v-102h-60z" />
    <glyph glyph-name="ring" unicode="&#x2da;" horiz-adv-x="186" 
d="M-2 681c0 26 9.33301 48.333 28 67s41 28 67 28s48.333 -9.33301 67 -28s28 -41 28 -67s-9.33301 -48.333 -28 -67s-41 -28 -67 -28s-48.333 9.33301 -67 28s-28 41 -28 67zM34 681c0 -16.667 5.66699 -30.667 17 -42s25.333 -17 42 -17s30.667 5.66699 42 17
s17 25.333 17 42s-5.66699 30.667 -17 42s-25.333 17 -42 17s-30.667 -5.66699 -42 -17s-17 -25.333 -17 -42z" />
    <glyph glyph-name="ogonek" unicode="&#x2db;" horiz-adv-x="186" 
d="M116 6l47 -0.000976562c-64 -43.333 -96 -85.666 -96 -126.999c0 -31.333 18.333 -47 55 -47c18 0 37.667 6.33301 59 19l13 -29c-25.333 -17.333 -56 -26 -92 -26c-30.667 0 -53.167 6.83301 -67.5 20.5c-14.333 13.666 -21.5 30.833 -21.5 51.5
c0 26.667 8.83301 52.5 26.5 77.5s43.167 45.167 76.5 60.5z" />
    <glyph glyph-name="tilde" unicode="&#x2dc;" horiz-adv-x="186" 
d="M183 718l44.001 0.000976562c-0.666992 -23.333 -8.16699 -45.5 -22.5 -66.5s-32.5 -31.5 -54.5 -31.5c-16 0 -32.333 5 -49 15l-38 21c-10.667 5.33301 -18.667 8 -24 8c-8.66699 0 -16.334 -4.83301 -23.001 -14.5s-11 -20.834 -13 -33.501h-44
c1.33301 23.333 9.33301 45.5 24 66.5s32 31.5 52 31.5c16.667 0 35.667 -6 57 -18l26 -15c12 -7.33301 22 -11 30 -11c10 0 18.5 5.5 25.5 16.5s10.167 21.5 9.5 31.5z" />
    <glyph glyph-name="hungarumlaut" unicode="&#x2dd;" horiz-adv-x="186" 
d="M49 738h71l-98 -141h-47zM200 738h71l-98 -141h-47z" />
    <glyph glyph-name="uni03A9" unicode="&#x3a9;" horiz-adv-x="622" 
d="M178 49l-0.00195312 3.00293c-35.333 36.667 -64.333 82.667 -87 138s-34 116.333 -34 183c0 100 24.333 180.333 73 240.999c48.667 60.667 110 91 184 91s134 -31.333 180 -94s69 -140.667 69 -234c0 -69.333 -11.667 -132.5 -35 -189.5s-52 -102.167 -86 -135.5v-3
h133v-49h-202v36c37.333 31.333 69 76.166 95 134.499s39 123.166 39 194.499c0 46 -6.83301 90.5 -20.5 133.5s-35.667 79.833 -66 110.5s-66.166 46 -107.499 46c-60 0 -108.333 -27.5 -145 -82.5s-55 -124.167 -55 -207.5c0 -68.667 13.333 -133.5 40 -194.5
s58.334 -105.833 95.001 -134.5v-36h-202v49h132z" />
    <glyph glyph-name="uni03BC" unicode="&#x3bc;" horiz-adv-x="444" 
d="M58 -176v707h60v-374c0 -42.667 7.33301 -73.167 22 -91.5s38 -27.5 70 -27.5c34 0 61.833 12.5 83.5 37.5s32.5 57.833 32.5 98.5v357h60v-531h-54v74h-2c-29.333 -57.333 -74.666 -86 -135.999 -86c-38.667 0 -63.334 8 -74.001 24h-2v-188h-60z" />
    <glyph glyph-name="pi" unicode="&#x3c0;" horiz-adv-x="491" 
d="M465 465l-70.999 -0.00195312v-324c0 -64 4.33301 -111 13 -141h-53c-10 18.667 -15 63.667 -15 135v330h-165c-2.66699 -75.333 -10.334 -160.666 -23.001 -255.999s-27 -165 -43 -209h-54c16.667 50.667 31.167 121.834 43.5 213.501s19.5 175.5 21.5 251.5
c-46 0 -78.667 -4 -98 -12l-10 38c24 16 64.333 24 121 24h339z" />
    <glyph glyph-name="uni2010" unicode="&#x2010;" horiz-adv-x="333" 
d="M58 311h217v-54h-217v54z" />
    <glyph glyph-name="endash" unicode="&#x2013;" horiz-adv-x="500" 
d="M0 311h500v-54h-500v54z" />
    <glyph glyph-name="emdash" unicode="&#x2014;" horiz-adv-x="1000" 
d="M0 311h1000v-54h-1000v54z" />
    <glyph glyph-name="quoteleft" unicode="&#x2018;" horiz-adv-x="240" 
d="M83 474l0.000976562 102c0 74 24.667 120 74 138v-40c-22.667 -14 -34.334 -46.667 -35.001 -98h29v-102h-68z" />
    <glyph glyph-name="quoteright" unicode="&#x2019;" horiz-adv-x="240" 
d="M89 612l-0.000976562 102h68v-102c0 -74 -24.667 -120 -74 -138v40c22.667 14 34.334 46.667 35.001 98h-29z" />
    <glyph glyph-name="quotesinglbase" unicode="&#x201a;" horiz-adv-x="240" 
d="M89 0l-0.000976562 102h68v-102c0 -74 -24.667 -120 -74 -138v40c22.667 14 34.334 46.667 35.001 98h-29z" />
    <glyph glyph-name="quotedblleft" unicode="&#x201c;" horiz-adv-x="352" 
d="M205 474l0.000976562 102c0 74 24.667 120 74 138v-40c-22.667 -14 -34.334 -46.667 -35.001 -98h29v-102h-68zM73.001 474l0.000976562 102c0 74 24.667 120 74 138v-40c-22.667 -14 -34.334 -46.667 -35.001 -98h29v-102h-68z" />
    <glyph glyph-name="quotedblright" unicode="&#x201d;" horiz-adv-x="352" 
d="M79 612l-0.000976562 102h68v-102c0 -74 -24.667 -120 -74 -138v40c22.667 14 34.334 46.667 35.001 98h-29zM210.999 612v102h68v-102c0 -74 -24.667 -120 -74 -138v40c22.667 14 34.334 46.667 35 98h-29z" />
    <glyph glyph-name="quotedblbase" unicode="&#x201e;" horiz-adv-x="352" 
d="M79 0l-0.000976562 102h68v-102c0 -74 -24.667 -120 -74 -138v40c22.667 14 34.334 46.667 35.001 98h-29zM210.999 0v102h68v-102c0 -74 -24.667 -120 -74 -138v40c22.667 14 34.334 46.667 35 98h-29z" />
    <glyph glyph-name="dagger" unicode="&#x2020;" horiz-adv-x="480" 
d="M210 490v224h60v-224h176v-50h-176v-585h-60v585h-176v50h176z" />
    <glyph glyph-name="daggerdbl" unicode="&#x2021;" horiz-adv-x="480" 
d="M210 714h60v-206h176v-50h-176v-347h176v-50h-176v-206h-60v206h-176v50h176v347h-176v50h176v206z" />
    <glyph glyph-name="bullet" unicode="&#x2022;" horiz-adv-x="500" 
d="M72 357c0 48.667 17.333 90.5 52 125.5s76.667 52.5 126 52.5s91.333 -17.5 126 -52.5s52 -76.833 52 -125.5s-17.333 -90.5 -52 -125.5s-76.667 -52.5 -126 -52.5s-91.333 17.5 -126 52.5s-52 76.833 -52 125.5z" />
    <glyph glyph-name="ellipsis" unicode="&#x2026;" horiz-adv-x="1000" 
d="M133 0v102h68v-102h-68zM466 0v102h68v-102h-68zM799 0v102h68v-102h-68z" />
    <glyph glyph-name="perthousand" unicode="&#x2030;" horiz-adv-x="1000" 
d="M107 524c0 -93.333 24 -140 72 -140s72 46.667 72 140s-24 140 -72 140s-72 -46.667 -72 -140zM173 -12l307 720h50l-307 -720h-50zM448 172c0 -93.333 24 -140 72 -140s72 46.667 72 140s-24 140 -72 140s-72 -46.667 -72 -140zM53 524c0 69.333 10.333 117.333 31 144
s52.334 40 95.001 40s74.334 -13.333 95.001 -40s31 -74.667 31 -144s-10.333 -117.333 -31 -144s-52.334 -40 -95.001 -40s-74.334 13.333 -95.001 40s-31 74.667 -31 144zM394 172c0 69.333 10.333 117.333 31 144s52.334 40 95.001 40c42.668 0 74.335 -13.333 95 -40
c20.667 -26.667 31 -74.667 31 -144s-10.333 -117.333 -31 -144s-52.334 -40 -95.001 -40s-74.334 13.333 -95 40c-20.667 26.667 -31 74.667 -31 144zM749 172c0 -93.333 24 -140 72 -140s72 46.667 72 140s-24 140 -72 140s-72 -46.667 -72 -140zM695 172
c0 69.333 10.335 117.333 31.002 144c20.668 26.667 52.335 40 95 40c42.668 0 74.335 -13.333 95 -40c20.667 -26.667 31 -74.667 31 -144s-10.333 -117.333 -31 -144s-52.334 -40 -95.001 -40s-74.334 13.333 -95.001 40s-31 74.667 -31 144z" />
    <glyph glyph-name="guilsinglleft" unicode="&#x2039;" horiz-adv-x="241" 
d="M58 254v60l125 139v-68l-89 -101l89 -101v-68z" />
    <glyph glyph-name="guilsinglright" unicode="&#x203a;" horiz-adv-x="241" 
d="M58 115v68l89 101l-89 101v68l125 -139v-60z" />
    <glyph glyph-name="fraction" unicode="&#x2044;" horiz-adv-x="167" 
d="M-167 -30l451 756h50l-451 -756h-50z" />
    <glyph glyph-name="Euro" unicode="&#x20ac;" horiz-adv-x="480" 
d="M477 665l-23.998 -55.001c-51.333 31.333 -96 47 -134 47c-28.667 0 -53.5 -5.83301 -74.5 -17.5s-37.333 -28 -49 -49s-20.5 -42.5 -26.5 -64.5s-10.667 -47.333 -14 -76h257l-18 -54h-243c-0.666992 -7.33301 -1 -18 -1 -32v-32h229l-19 -54h-209
c2 -25.333 4.5 -47.833 7.5 -67.5s8.33301 -40.834 16 -63.501s17.334 -41.5 29 -56.5c11.667 -15 27.334 -27.5 47 -37.5c19.667 -10 42.5 -15 68.5 -15c26.667 0 49.667 5.16699 69 15.5s42 26.5 68 48.5v-73c-40 -27.333 -86 -41 -138 -41
c-43.333 0 -80.333 7.5 -111 22.5s-54.334 36.833 -71.001 65.5s-28.834 58.834 -36.501 90.501s-13.167 68.834 -16.5 111.501h-69l18 54h49v32c0 14 0.333008 24.667 1 32h-68l18 54h54c19.333 173.333 98.333 260 237 260c48 0 99.333 -15 154 -45z" />
    <glyph glyph-name="afii61289" unicode="&#x2113;" horiz-adv-x="421" 
d="M371 128l28 -22.998c-37.333 -74.667 -89.666 -112 -156.999 -112c-48.667 0 -84.334 17.667 -107.001 53s-34.667 82.333 -36 141v14l-51 -46l-20 34c6 5.33301 14 12.666 24 21.999s18.833 17.666 26.5 24.999s14.5 14.333 20.5 21v277c0 82 12.667 141 38 177
s56 54 92 54c33.333 0 59 -14 77 -42s27 -65 27 -111c0 -113.333 -60.333 -235.333 -181 -366v-34c0 -60 9.16699 -103.833 27.5 -131.5s42.5 -41.5 72.5 -41.5c47.333 0 87 29.667 119 89zM152 538.002v-230c94.667 114 142 215 142 303c0 72 -22 108 -66 108
c-20.667 0 -38.5 -14.667 -53.5 -44s-22.5 -75 -22.5 -137z" />
    <glyph glyph-name="trademark" unicode="&#x2122;" horiz-adv-x="990" 
d="M177 302v368h-135v44h320v-44h-135v-368h-50zM654 380l128 334h86v-412h-50v368h-2l-149 -368h-30l-149 368h-2v-368h-50v412h86z" />
    <glyph glyph-name="Omega" unicode="&#x2126;" horiz-adv-x="622" 
d="M178 49l-0.00195312 3.00293c-35.333 36.667 -64.333 82.667 -87 138s-34 116.333 -34 183c0 100 24.333 180.333 73 240.999c48.667 60.667 110 91 184 91s134 -31.333 180 -94s69 -140.667 69 -234c0 -69.333 -11.667 -132.5 -35 -189.5s-52 -102.167 -86 -135.5v-3
h133v-49h-202v36c37.333 31.333 69 76.166 95 134.499s39 123.166 39 194.499c0 46 -6.83301 90.5 -20.5 133.5s-35.667 79.833 -66 110.5s-66.166 46 -107.499 46c-60 0 -108.333 -27.5 -145 -82.5s-55 -124.167 -55 -207.5c0 -68.667 13.333 -133.5 40 -194.5
s58.334 -105.833 95.001 -134.5v-36h-202v49h132z" />
    <glyph glyph-name="estimated" unicode="&#x212e;" horiz-adv-x="868" 
d="M833 338h-647c-3.33301 0 -5 -1.33301 -5 -4v-196c0 -8 2.66699 -15.667 8 -23c68.667 -70.667 150.334 -106 245.001 -106c50 0 97.333 10.667 141.999 32c44.667 21.333 83.334 50.333 116 87h57c-36 -42.667 -81.833 -76.5 -137.5 -101.5s-115.167 -37.5 -178.5 -37.5
c-110 0 -204 35 -282 105s-117 154.667 -117 254s39 184.166 117 254.499s172 105.5 282 105.5c110.667 0 205 -35.167 283 -105.5s117 -155.166 117 -254.499v-10zM686 363v198c0 9.33301 -3 17 -9 23c-69.333 68 -150.333 102 -243 102c-94 0 -175.333 -35 -244 -105
c-6 -7.33789 -9 -15.6709 -9 -25v-193c0 -4 1.66699 -6 5 -6h496c2.66699 0 4 2 4 6z" />
    <glyph glyph-name="partialdiff" unicode="&#x2202;" horiz-adv-x="473" 
d="M90 682l-20.999 43c40.667 35.333 88 53 142 53c60 0 111.167 -31.333 153.5 -94s63.5 -155.667 63.5 -279c0 -126 -19.333 -226.167 -58 -300.5s-94 -111.5 -166 -111.5c-52 0 -92.333 21.333 -121 64s-43 96.334 -43 161.001c0 74.667 18.667 135.667 56 183
s81.333 71 132 71c35.334 0 65.667 -9.5 91 -28.5s43 -38.833 53 -59.5h1c0.666992 7.33301 1 21.333 1 42c0 89.333 -16.333 162.166 -49 218.499s-72.334 84.5 -119.001 84.5c-43.333 0 -82 -15.667 -116 -47zM208.001 41h1c42 0 77.167 26.5 105.5 79.5
s45.5 118.5 51.5 196.5c-8.66699 27.333 -24.667 52 -48 74s-51 33 -83 33c-38 0 -70.833 -20.167 -98.5 -60.5s-41.5 -88.5 -41.5 -144.5c0 -54 10.167 -97.167 30.5 -129.5s47.833 -48.5 82.5 -48.5z" />
    <glyph glyph-name="Delta" unicode="&#x2206;" horiz-adv-x="560" 
d="M30 0v41l221 671h62l218 -670v-42h-501zM85 47h387l-133 407c-4 12.667 -13.667 41.5 -29 86.5s-25 76.5 -29 94.5h-4c-2.66699 -16 -11 -44.5 -25 -85.5s-23 -68.5 -27 -82.5z" />
    <glyph glyph-name="product" unicode="&#x220f;" horiz-adv-x="605" 
d="M580 641h-95v-737h-54v737h-258v-737h-54v737h-95v53h556v-53z" />
    <glyph glyph-name="summation" unicode="&#x2211;" horiz-adv-x="485" 
d="M464 -96h-443v40l243 354l-231 355v41h415v-50h-339v-3l218 -335l-236 -343v-4h373v-55z" />
    <glyph glyph-name="minus" unicode="&#x2212;" horiz-adv-x="600" 
d="M47 228v50h506v-50h-506z" />
    <glyph glyph-name="uni2215" unicode="&#x2215;" horiz-adv-x="167" 
d="M-167 -30l451 756h50l-451 -756h-50z" />
    <glyph glyph-name="uni2219" unicode="&#x2219;" horiz-adv-x="240" 
d="M65 328c0 14.667 5.5 27.5 16.5 38.5s23.833 16.5 38.5 16.5s27.5 -5.5 38.5 -16.5s16.5 -23.833 16.5 -38.5s-5.5 -27.5 -16.5 -38.5s-23.833 -16.5 -38.5 -16.5s-27.5 5.5 -38.5 16.5s-16.5 23.833 -16.5 38.5z" />
    <glyph glyph-name="radical" unicode="&#x221a;" horiz-adv-x="505" 
d="M500 824l-195.001 -976.002h-51l-145 470l-66 -24l-12 37l115 43l117 -374c9.33301 -45.333 14.333 -69.666 15 -72.999h1c0.666992 4.66699 4.33398 28.334 11.001 71.001l167 826h43z" />
    <glyph glyph-name="infinity" unicode="&#x221e;" horiz-adv-x="706" 
d="M660 290l-0.00292969 -1.00098c0 -41.333 -13.667 -75.333 -41 -102c-27.334 -26.667 -59.667 -40 -96.999 -40c-27.333 0 -53.5 8.5 -78.5 25.5s-54.833 44.833 -89.5 83.5c-20.667 -23.333 -37.667 -41.333 -51 -54s-31.166 -25 -53.499 -37
c-22.334 -12 -45.167 -18 -68.5 -18c-37.333 0 -69.166 13.5 -95.499 40.5s-39.5 59.833 -39.5 98.5c0 40.667 13.333 74.5 40 101.5s60.334 40.5 101.001 40.5c31.333 0 60.166 -9.66699 86.499 -29c26.334 -19.333 54.167 -46.666 83.5 -81.999
c23.333 26 40.5 44.667 51.5 56s28 23.333 51 36s46.167 19 69.5 19c39.333 0 71 -12.833 95 -38.5s36 -58.834 36 -99.5zM185.997 184.999l0.999023 -0.000976562c18 0 36.5 5.66699 55.5 17s35 24.333 48 39s26.833 29.334 41.5 44.001
c-19.333 24 -34.166 41.5 -44.499 52.5s-25.666 22.667 -45.999 35s-40.833 18.5 -61.5 18.5c-28.667 0 -51.334 -10.333 -68.001 -31s-24.667 -45.667 -24 -75c0 -28.667 9 -52.5 27 -71.5s41.667 -28.5 71 -28.5zM524.996 390.998l-1.00098 -0.00195312
c-12 0 -23.833 -2.33301 -35.5 -7s-23.167 -11.5 -34.5 -20.5s-20.666 -17 -27.999 -24s-16.5 -16.667 -27.5 -29s-17.833 -19.833 -20.5 -22.5c25.333 -27.333 44 -46.666 56 -57.999c12 -11.334 26.333 -21.667 43 -31s33 -14 49 -14c28 0 50.5 10.167 67.5 30.5
s25.5 43.833 25.5 70.5c0 32.667 -8.83301 58.334 -26.5 77.001s-40.167 28 -67.5 28z" />
    <glyph glyph-name="integral" unicode="&#x222b;" horiz-adv-x="316" 
d="M300 832l-10.999 -40c-9.33301 6 -20 9 -32 9c-19.334 0 -34.667 -8 -46 -24c-20.667 -26.667 -31 -86.667 -31 -180c0 -51.334 1.83301 -135.501 5.5 -252.501s5.5 -201.833 5.5 -254.5c0 -94 -13.667 -161.333 -41 -202c-18 -29.333 -45.667 -44 -83 -44
c-22 0 -40 5 -54 15l12 42c15.333 -6.66699 28.333 -10 39 -10c17.333 0 31.666 8 42.999 24c20.667 30.667 31 89 31 175c0 53.333 -1.83301 139.333 -5.5 258s-5.5 203.334 -5.5 254.001c0 102 15.333 170.667 46 206c21.333 24.667 48.333 37 81 37
c17.334 0 32.667 -4.33301 46 -13z" />
    <glyph glyph-name="approxequal" unicode="&#x2248;" horiz-adv-x="501" 
d="M433 412l26 -20.001c-26.667 -58.667 -64.667 -88 -114 -88c-16 0 -31 2.83301 -45 8.5s-33.667 15.834 -59 30.501c-35.333 20.667 -63.666 31 -84.999 31c-32 0 -61.333 -23 -88 -69l-27 20c27.333 58 67.666 87 120.999 87c18.667 0 38.167 -4.66699 58.5 -14
s34.833 -17.333 43.5 -24c7.33301 -4 14.5 -8 21.5 -12s13.667 -7.5 20 -10.5c6.33496 -3 13.168 -5.33301 20.5 -7c7.33496 -1.66699 14.668 -2.5 22 -2.5c18 0 33.333 5.66699 46 17s25.667 29 39 53zM433 260.999l26.001 -19.999c-28 -58 -66 -87 -114 -87
c-11.333 0 -22.833 1.66699 -34.5 5s-21.667 7.16602 -30 11.499s-21.5 11.5 -39.5 21.5c-36.667 21.333 -64.667 32 -84 32c-32.667 0 -62.334 -23.333 -89.001 -70l-27 20c28 58.667 68.333 88 121 88c18.667 0 38 -4.66699 58 -14s34.667 -17.333 44 -24
c7.33301 -4 14.5 -8 21.5 -12s13.667 -7.5 20 -10.5c6.33496 -3 13.168 -5.33301 20.5 -7c7.33301 -1.66699 15 -2.5 23 -2.5c30.667 0 58.667 23 84 69z" />
    <glyph glyph-name="notequal" unicode="&#x2260;" horiz-adv-x="501" 
d="M353 479l-41 -90h141v-40h-157l-61 -134h218v-39h-234l-48 -106l-31 14l41 92h-135v39h152l60 134h-212v40h228l47 104z" />
    <glyph glyph-name="lessequal" unicode="&#x2264;" horiz-adv-x="501" 
d="M451 106l-400 210v40l400 210v-49l-356 -179v-2l356 -181v-49zM454 25h-407v41h407v-41z" />
    <glyph glyph-name="greaterequal" unicode="&#x2265;" horiz-adv-x="501" 
d="M52 566l400 -210v-40l-400 -210v49l356 180v2l-356 180v49zM453 25h-406v41h406v-41z" />
    <glyph glyph-name="lozenge" unicode="&#x25ca;" horiz-adv-x="506" 
d="M455 347l-180 -385h-46l-179 385l180 385h47zM403 345l-133 283c-4 9.33301 -9.66699 26.666 -17 51.999h-2c-5.33301 -21.3359 -11 -38.6689 -17 -52l-132 -280l134 -284c7.33301 -18.667 12.333 -35.667 15 -51h4c2.66699 16.667 7.66699 33.334 15 50.001z" />
    <glyph glyph-name="fi" unicode="&#xfb01;" 
d="M304 0v531h60v-531h-60zM304 612v102h60v-102h-60zM80 0v481h-73v50h73v63c0 42 7.66699 73.833 23 95.5s46.333 32.5 93 32.5c14.667 0 27.334 -1 38 -3v-50c-9.33301 2 -19 3 -29 3c-22.667 0 -39.167 -5.66699 -49.5 -17c-10.333 -11.3359 -15.5 -31.6689 -15.5 -61
v-63h94v-50h-94v-481h-60z" />
    <glyph glyph-name="fl" unicode="&#xfb02;" 
d="M304 0v714h60v-714h-60zM80 0v481h-73v50h73v63c0 42 7.66699 73.833 23 95.5s46.333 32.5 93 32.5c14.667 0 27.334 -1 38 -3v-50c-9.33301 2 -19 3 -29 3c-22.667 0 -39.167 -5.66699 -49.5 -17c-10.333 -11.3359 -15.5 -31.6689 -15.5 -61v-63h94v-50h-94v-481h-60z
" />
    <glyph glyph-name=".null" horiz-adv-x="0" 
 />
    <glyph glyph-name="nonmarkingreturn" horiz-adv-x="333" 
 />
    <glyph glyph-name="a.superior" horiz-adv-x="277" 
d="M65 602h-49.998c0 35.333 9.16699 61.833 27.5 79.5s48.166 26.5 89.499 26.5c72.667 0 109 -28.333 109 -85v-185c0 -18 6.66699 -27 20 -27h11v-38c-9.33301 -4 -20.666 -6 -33.999 -6c-30 0 -45 13.333 -45 40v14h-2c-12.667 -36 -42.334 -54 -89.001 -54
c-31.333 0 -55.333 8.83301 -72 26.5s-25 40.167 -25 67.5c0 50 26.333 81.667 79 95l74 19c13.333 3.33301 22.166 7.83301 26.499 13.5c4.33301 5.66895 6.5 15.8359 6.5 30.5c0 14.667 -5.5 25.834 -16.5 33.5c-11 7.66699 -25.5 11.5 -43.5 11.5
c-22 0 -38.5 -5.66699 -49.5 -17s-16.5 -26.333 -16.5 -45zM191.002 499l0.000976562 51.999h-2c-2.66699 -7.33301 -16.334 -14.333 -41.001 -21l-33 -8c-37.333 -9.33301 -56 -27.666 -56 -54.999c0 -16 4.83301 -29.333 14.5 -40s22.167 -16 37.5 -16
c24 0 43.333 7.83301 58 23.5s22 37.167 22 64.5z" />
    <glyph glyph-name="o.superior" horiz-adv-x="277" 
d="M9 538c0 113.333 43 170 129 170c86.667 0 130 -56.667 130 -170c0 -114 -43.333 -171 -130 -171c-86 0 -129 57 -129 171zM63 538c0 -43.333 7 -75.3311 21 -95.998s32 -31 54 -31c22.667 0 41 10.333 55 31s21 52.667 21 96s-7 75.166 -21 95.499
s-32.333 30.5 -55 30.5c-22 0 -40 -10.333 -54 -31s-21 -52.334 -21 -95.001z" />
    <glyph glyph-name="one.superior" horiz-adv-x="312" 
d="M144 280v320h-108v36c74.667 0.666992 113.667 24.667 117 72h45v-428h-54z" />
    <glyph glyph-name="two.superior" horiz-adv-x="312" 
d="M78 573l-53.999 -0.00195312c1.33301 90 47 135 137 135c36.667 0 66.667 -9.5 90 -28.5s35 -47.833 35 -86.5c0 -27.335 -5 -50.668 -15 -69.999c-10 -19.333 -29.333 -39.666 -58 -60.999l-50 -37c-46.667 -34 -74 -67.667 -82 -101h207v-44h-261
c0 34.667 7.66699 64.5 23 89.5s39.666 50.833 72.999 77.5l49 39c22.667 17.333 38.334 34 47 50c8.66699 16 13 34.333 13 55c0 24 -7 42.167 -21 54.5s-32 18.5 -54 18.5c-23.333 0 -42 -7.83301 -56 -23.5s-21.667 -38.167 -23 -67.5z" />
    <glyph glyph-name="three.superior" horiz-adv-x="312" 
d="M119 481l-0.00292969 44.001h18c26.667 0 47.834 6.33301 63.501 19c15.667 12.6689 23.5 29.3359 23.5 50c0 20 -6.33301 36.667 -19 50s-29.667 20 -51 20c-20.667 0 -38.167 -6.66699 -52.5 -20s-21.833 -31.333 -22.5 -54h-54c0 36.667 10.833 65.5 32.5 86.5
s53.834 31.5 96.501 31.5c38.667 0 69 -9.33301 91 -28s33 -44.334 33 -77.001c0 -24.667 -6.33301 -45.667 -19 -63s-31 -28.666 -55 -33.999v-2c27.333 -3.33301 48.833 -14.333 64.5 -33c15.667 -18.668 23.5 -41.335 23.5 -68.001c0 -40 -11.667 -71.667 -35 -95
s-57.666 -35 -102.999 -35c-86 0 -130.667 40.667 -134 122h54c0.666992 -20 8.16699 -38 22.5 -54s33.5 -24 57.5 -24c22 0 41.5 7.33301 58.5 22s25.5 35.667 25.5 63c0 24.667 -8.33301 44 -25 58s-39 21 -67 21h-27z" />
    </font>
</defs>
</svg>
